Thảo luận 300 2007 1080p Bluray - vozForums
vozForums
Go Back   vozForums > Khu vui chơi giải trí > Phim - Nhạc - Sách
Reply
 
Thread Tools
  #1  
Old 15-12-2019, 06:45
accvfs6 accvfs6 is online now
Senior Member
 
Join Date: 06-2014
Posts: 1,162

300 2007 1080p Bluray







“300” là bộ phim lịch sử tái hiện cuộc chiến Thermopylae nổi tiếng kéo dài 3 ngày trong lịch sử Hy Lạp khi Vua Leonidas cùng 300 tinh binh Sparta đã quyết tử đánh trả đạo quân Ba Tư khổng lồ gần 1 triệu quân do Vua Xerxes chỉ huy nhằm thôn tính đất nước Hy Lạp.





Code:

General
Unique ID                                : 304165365864670136883262500844692916421 (0xE4D41E5DA5699E398EF000D2E21548C5)
Complete name                            : 300.2007.Bluray.REMUX.CEE.1080p.VC1.TrueHD.5.1-MOLAMOLA.mkv
Format                                   : Matroska
Format version                           : Version 4
File size                                : 21.3 GiB
Duration                                 : 1 h 56 min
Overall bit rate mode                    : Variable
Overall bit rate                         : 26.2 Mb/s
Encoded date                             : UTC 2019-04-06 06:12:48
Writing application                      : mkvmerge v32.0.0 ('Astral Progressions') 64-bit
Writing library                          : libebml v1.3.7 + libmatroska v1.5.0

Video
ID                                       : 1
Format                                   : VC-1
Format profile                           : Advanced@L3
Codec ID                                 : V_MS/VFW/FOURCC / WVC1
Codec ID/Hint                            : Microsoft
Duration                                 : 1 h 56 min
Bit rate                                 : 16.6 Mb/s
Width                                    : 1 920 pixels
Height                                   : 1 080 pixels
Display aspect ratio                     : 16:9
Frame rate mode                          : Constant
Frame rate                               : 23.976 (24000/1001) FPS
Color space                              : YUV
Chroma subsampling                       : 4:2:0
Bit depth                                : 8 bits
Scan type                                : Progressive
Compression mode                         : Lossy
Bits/(Pixel*Frame)                       : 0.334
Stream size                              : 13.5 GiB (63%)
Default                                  : Yes
Forced                                   : No

Audio #1
ID                                       : 2
Format                                   : AC-3
Format/Info                              : Audio Coding 3
Commercial name                          : Dolby Digital
Codec ID                                 : A_AC3
Duration                                 : 1 h 56 min
Bit rate mode                            : Constant
Bit rate                                 : 640 kb/s
Channel(s)                               : 6 channels
Channel layout                           : L R C LFE Ls Rs
Sampling rate                            : 48.0 kHz
Frame rate                               : 31.250 FPS (1536 SPF)
Bit depth                                : 16 bits
Compression mode                         : Lossy
Delay relative to video                  : 42 ms
Stream size                              : 533 MiB (2%)
Language                                 : English
Service kind                             : Complete Main
Default                                  : Yes
Forced                                   : No

Audio #2
ID                                       : 3
Format                                   : MLP FBA
Format/Info                              : Meridian Lossless Packing FBA
Commercial name                          : Dolby TrueHD
Codec ID                                 : A_TRUEHD
Duration                                 : 1 h 56 min
Bit rate mode                            : Variable
Bit rate                                 : 1 736 kb/s
Maximum bit rate                         : 3 267 kb/s
Channel(s)                               : 6 channels
Channel layout                           : L R C LFE Ls Rs
Sampling rate                            : 48.0 kHz
Frame rate                               : 1 200.000 FPS (40 SPF)
Compression mode                         : Lossless
Delay relative to video                  : 42 ms
Stream size                              : 1.41 GiB (7%)
Language                                 : English
Default                                  : No
Forced                                   : No

Audio #3
ID                                       : 4
Format                                   : AC-3
Format/Info                              : Audio Coding 3
Commercial name                          : Dolby Digital
Codec ID                                 : A_AC3
Duration                                 : 1 h 56 min
Bit rate mode                            : Constant
Bit rate                                 : 640 kb/s
Channel(s)                               : 6 channels
Channel layout                           : L R C LFE Ls Rs
Sampling rate                            : 48.0 kHz
Frame rate                               : 31.250 FPS (1536 SPF)
Bit depth                                : 16 bits
Compression mode                         : Lossy
Delay relative to video                  : 42 ms
Stream size                              : 533 MiB (2%)
Language                                 : English
Service kind                             : Complete Main
Default                                  : No
Forced                                   : No

Audio #4
ID                                       : 5
Format                                   : AC-3
Format/Info                              : Audio Coding 3
Commercial name                          : Dolby Digital
Codec ID                                 : A_AC3
Duration                                 : 1 h 56 min
Bit rate mode                            : Constant
Bit rate                                 : 448 kb/s
Channel(s)                               : 6 channels
Channel layout                           : L R C LFE Ls Rs
Sampling rate                            : 48.0 kHz
Frame rate                               : 31.250 FPS (1536 SPF)
Bit depth                                : 16 bits
Compression mode                         : Lossy
Delay relative to video                  : 42 ms
Stream size                              : 374 MiB (2%)
Language                                 : Portuguese
Service kind                             : Complete Main
Default                                  : No
Forced                                   : No

Audio #5
ID                                       : 6
Format                                   : AC-3
Format/Info                              : Audio Coding 3
Commercial name                          : Dolby Digital
Codec ID                                 : A_AC3
Duration                                 : 1 h 56 min
Bit rate mode                            : Constant
Bit rate                                 : 448 kb/s
Channel(s)                               : 6 channels
Channel layout                           : L R C LFE Ls Rs
Sampling rate                            : 48.0 kHz
Frame rate                               : 31.250 FPS (1536 SPF)
Bit depth                                : 16 bits
Compression mode                         : Lossy
Delay relative to video                  : 42 ms
Stream size                              : 374 MiB (2%)
Language                                 : Czech
Service kind                             : Complete Main
Default                                  : No
Forced                                   : No

Audio #6
ID                                       : 7
Format                                   : AC-3
Format/Info                              : Audio Coding 3
Commercial name                          : Dolby Digital
Codec ID                                 : A_AC3
Duration                                 : 1 h 56 min
Bit rate mode                            : Constant
Bit rate                                 : 448 kb/s
Channel(s)                               : 6 channels
Channel layout                           : L R C LFE Ls Rs
Sampling rate                            : 48.0 kHz
Frame rate                               : 31.250 FPS (1536 SPF)
Bit depth                                : 16 bits
Compression mode                         : Lossy
Delay relative to video                  : 42 ms
Stream size                              : 374 MiB (2%)
Language                                 : Hungarian
Service kind                             : Complete Main
Default                                  : No
Forced                                   : No

Audio #7
ID                                       : 8
Format                                   : AC-3
Format/Info                              : Audio Coding 3
Commercial name                          : Dolby Digital
Codec ID                                 : A_AC3
Duration                                 : 1 h 56 min
Bit rate mode                            : Constant
Bit rate                                 : 448 kb/s
Channel(s)                               : 6 channels
Channel layout                           : L R C LFE Ls Rs
Sampling rate                            : 48.0 kHz
Frame rate                               : 31.250 FPS (1536 SPF)
Bit depth                                : 16 bits
Compression mode                         : Lossy
Delay relative to video                  : 42 ms
Stream size                              : 374 MiB (2%)
Language                                 : Polish
Service kind                             : Complete Main
Default                                  : No
Forced                                   : No

Audio #8
ID                                       : 9
Format                                   : AC-3
Format/Info                              : Audio Coding 3
Commercial name                          : Dolby Digital
Codec ID                                 : A_AC3
Duration                                 : 1 h 56 min
Bit rate mode                            : Constant
Bit rate                                 : 448 kb/s
Channel(s)                               : 6 channels
Channel layout                           : L R C LFE Ls Rs
Sampling rate                            : 48.0 kHz
Frame rate                               : 31.250 FPS (1536 SPF)
Bit depth                                : 16 bits
Compression mode                         : Lossy
Delay relative to video                  : 42 ms
Stream size                              : 374 MiB (2%)
Language                                 : Russian
Service kind                             : Complete Main
Default                                  : No
Forced                                   : No

Audio #9
ID                                       : 10
Format                                   : AC-3
Format/Info                              : Audio Coding 3
Commercial name                          : Dolby Digital
Codec ID                                 : A_AC3
Duration                                 : 1 h 56 min
Bit rate mode                            : Constant
Bit rate                                 : 448 kb/s
Channel(s)                               : 6 channels
Channel layout                           : L R C LFE Ls Rs
Sampling rate                            : 48.0 kHz
Frame rate                               : 31.250 FPS (1536 SPF)
Bit depth                                : 16 bits
Compression mode                         : Lossy
Delay relative to video                  : 42 ms
Stream size                              : 374 MiB (2%)
Language                                 : Thai
Service kind                             : Complete Main
Default                                  : No
Forced                                   : No

Audio #10
ID                                       : 11
Format                                   : AC-3
Format/Info                              : Audio Coding 3
Commercial name                          : Dolby Digital
Codec ID                                 : A_AC3
Duration                                 : 1 h 56 min
Bit rate mode                            : Constant
Bit rate                                 : 448 kb/s
Channel(s)                               : 6 channels
Channel layout                           : L R C LFE Ls Rs
Sampling rate                            : 48.0 kHz
Frame rate                               : 31.250 FPS (1536 SPF)
Bit depth                                : 16 bits
Compression mode                         : Lossy
Delay relative to video                  : 42 ms
Stream size                              : 374 MiB (2%)
Language                                 : Turkish
Service kind                             : Complete Main
Default                                  : No
Forced                                   : No

Audio #11
ID                                       : 12
Format                                   : AC-3
Format/Info                              : Audio Coding 3
Commercial name                          : Dolby Digital
Codec ID                                 : A_AC3
Duration                                 : 1 h 56 min
Bit rate mode                            : Constant
Bit rate                                 : 192 kb/s
Channel(s)                               : 2 channels
Channel layout                           : L R
Sampling rate                            : 48.0 kHz
Frame rate                               : 31.250 FPS (1536 SPF)
Bit depth                                : 16 bits
Compression mode                         : Lossy
Delay relative to video                  : 42 ms
Stream size                              : 160 MiB (1%)
Language                                 : English
Service kind                             : Complete Main
Default                                  : No
Forced                                   : No

Audio #12
ID                                       : 13
Format                                   : MLP FBA
Format/Info                              : Meridian Lossless Packing FBA
Commercial name                          : Dolby TrueHD
Codec ID                                 : A_TRUEHD
Duration                                 : 1 h 56 min
Bit rate mode                            : Variable
Bit rate                                 : 1 693 kb/s
Maximum bit rate                         : 2 994 kb/s
Channel(s)                               : 6 channels
Channel layout                           : L R C LFE Ls Rs
Sampling rate                            : 48.0 kHz
Frame rate                               : 1 200.000 FPS (40 SPF)
Compression mode                         : Lossless
Delay relative to video                  : 42 ms
Stream size                              : 1.38 GiB (6%)
Title                                    : Mandarin
Language                                 : Chinese
Default                                  : No
Forced                                   : No

Audio #13
ID                                       : 14
Format                                   : AC-3
Format/Info                              : Audio Coding 3
Commercial name                          : Dolby Digital
Codec ID                                 : A_AC3
Duration                                 : 1 h 56 min
Bit rate mode                            : Constant
Bit rate                                 : 640 kb/s
Channel(s)                               : 6 channels
Channel layout                           : L R C LFE Ls Rs
Sampling rate                            : 48.0 kHz
Frame rate                               : 31.250 FPS (1536 SPF)
Bit depth                                : 16 bits
Compression mode                         : Lossy
Delay relative to video                  : 42 ms
Stream size                              : 534 MiB (2%)
Title                                    : Mandarin
Language                                 : Chinese
Service kind                             : Complete Main
Default                                  : No
Forced                                   : No

Audio #14
ID                                       : 15
Format                                   : AC-3
Format/Info                              : Audio Coding 3
Commercial name                          : Dolby Digital
Codec ID                                 : A_AC3
Duration                                 : 1 h 56 min
Bit rate mode                            : Constant
Bit rate                                 : 448 kb/s
Channel(s)                               : 6 channels
Channel layout                           : L R C LFE Ls Rs
Sampling rate                            : 48.0 kHz
Frame rate                               : 31.250 FPS (1536 SPF)
Bit depth                                : 16 bits
Compression mode                         : Lossy
Delay relative to video                  : 42 ms
Stream size                              : 374 MiB (2%)
Title                                    : Mandarin
Language                                 : Chinese
Service kind                             : Complete Main
Default                                  : No
Forced                                   : No

Text #1
ID                                       : 16
Format                                   : PGS
Muxing mode                              : zlib
Codec ID                                 : S_HDMV/PGS
Codec ID/Info                            : Picture based subtitle format used on BDs/HD-DVDs
Duration                                 : 1 h 55 min
Bit rate                                 : 21.4 kb/s
Count of elements                        : 2026
Stream size                              : 17.7 MiB (0%)
Language                                 : English
Default                                  : Yes
Forced                                   : No

Text #2
ID                                       : 17
Format                                   : PGS
Muxing mode                              : zlib
Codec ID                                 : S_HDMV/PGS
Codec ID/Info                            : Picture based subtitle format used on BDs/HD-DVDs
Duration                                 : 1 h 55 min
Bit rate                                 : 19.5 kb/s
Count of elements                        : 1946
Stream size                              : 16.1 MiB (0%)
Title                                    : Traditional Chinese
Language                                 : Chinese
Default                                  : No
Forced                                   : No

Text #3
ID                                       : 18
Format                                   : PGS
Muxing mode                              : zlib
Codec ID                                 : S_HDMV/PGS
Codec ID/Info                            : Picture based subtitle format used on BDs/HD-DVDs
Duration                                 : 1 h 55 min
Bit rate                                 : 14.5 kb/s
Count of elements                        : 1894
Stream size                              : 11.9 MiB (0%)
Language                                 : Korean
Default                                  : No
Forced                                   : No

Text #4
ID                                       : 19
Format                                   : PGS
Muxing mode                              : zlib
Codec ID                                 : S_HDMV/PGS
Codec ID/Info                            : Picture based subtitle format used on BDs/HD-DVDs
Duration                                 : 1 h 55 min
Bit rate                                 : 20.8 kb/s
Count of elements                        : 1920
Stream size                              : 17.1 MiB (0%)
Language                                 : Portuguese
Default                                  : No
Forced                                   : No

Text #5
ID                                       : 20
Format                                   : PGS
Muxing mode                              : zlib
Codec ID                                 : S_HDMV/PGS
Codec ID/Info                            : Picture based subtitle format used on BDs/HD-DVDs
Duration                                 : 1 h 55 min
Bit rate                                 : 10.7 kb/s
Count of elements                        : 1652
Stream size                              : 8.85 MiB (0%)
Language                                 : Arabic
Default                                  : No
Forced                                   : No

Text #6
ID                                       : 21
Format                                   : PGS
Muxing mode                              : zlib
Codec ID                                 : S_HDMV/PGS
Codec ID/Info                            : Picture based subtitle format used on BDs/HD-DVDs
Duration                                 : 1 h 55 min
Bit rate                                 : 24.8 kb/s
Count of elements                        : 1916
Stream size                              : 20.4 MiB (0%)
Language                                 : Indonesian
Default                                  : No
Forced                                   : No

Text #7
ID                                       : 22
Format                                   : PGS
Muxing mode                              : zlib
Codec ID                                 : S_HDMV/PGS
Codec ID/Info                            : Picture based subtitle format used on BDs/HD-DVDs
Duration                                 : 1 h 55 min
Bit rate                                 : 21.3 kb/s
Count of elements                        : 1916
Stream size                              : 17.5 MiB (0%)
Language                                 : Bulgarian
Default                                  : No
Forced                                   : No

Text #8
ID                                       : 23
Format                                   : PGS
Muxing mode                              : zlib
Codec ID                                 : S_HDMV/PGS
Codec ID/Info                            : Picture based subtitle format used on BDs/HD-DVDs
Duration                                 : 1 h 55 min
Bit rate                                 : 19.8 kb/s
Count of elements                        : 1916
Stream size                              : 16.3 MiB (0%)
Language                                 : Croatian
Default                                  : No
Forced                                   : No

Text #9
ID                                       : 24
Format                                   : PGS
Muxing mode                              : zlib
Codec ID                                 : S_HDMV/PGS
Codec ID/Info                            : Picture based subtitle format used on BDs/HD-DVDs
Duration                                 : 1 h 55 min
Bit rate                                 : 18.8 kb/s
Count of elements                        : 1924
Stream size                              : 15.6 MiB (0%)
Language                                 : Czech
Default                                  : No
Forced                                   : No

Text #10
ID                                       : 25
Format                                   : PGS
Muxing mode                              : zlib
Codec ID                                 : S_HDMV/PGS
Codec ID/Info                            : Picture based subtitle format used on BDs/HD-DVDs
Duration                                 : 1 h 55 min
Bit rate                                 : 20.2 kb/s
Count of elements                        : 1540
Stream size                              : 16.7 MiB (0%)
Language                                 : Estonian
Default                                  : No
Forced                                   : No

Text #11
ID                                       : 26
Format                                   : PGS
Muxing mode                              : zlib
Codec ID                                 : S_HDMV/PGS
Codec ID/Info                            : Picture based subtitle format used on BDs/HD-DVDs
Duration                                 : 1 h 55 min
Bit rate                                 : 20.6 kb/s
Count of elements                        : 1920
Stream size                              : 17.0 MiB (0%)
Language                                 : Greek
Default                                  : No
Forced                                   : No

Text #12
ID                                       : 27
Format                                   : PGS
Muxing mode                              : zlib
Codec ID                                 : S_HDMV/PGS
Codec ID/Info                            : Picture based subtitle format used on BDs/HD-DVDs
Duration                                 : 1 h 55 min
Bit rate                                 : 15.3 kb/s
Count of elements                        : 1922
Stream size                              : 12.6 MiB (0%)
Language                                 : Hebrew
Default                                  : No
Forced                                   : No

Text #13
ID                                       : 28
Format                                   : PGS
Muxing mode                              : zlib
Codec ID                                 : S_HDMV/PGS
Codec ID/Info                            : Picture based subtitle format used on BDs/HD-DVDs
Duration                                 : 1 h 55 min
Bit rate                                 : 18.6 kb/s
Count of elements                        : 1760
Stream size                              : 15.3 MiB (0%)
Language                                 : Hungarian
Default                                  : No
Forced                                   : No

Text #14
ID                                       : 29
Format                                   : PGS
Muxing mode                              : zlib
Codec ID                                 : S_HDMV/PGS
Codec ID/Info                            : Picture based subtitle format used on BDs/HD-DVDs
Duration                                 : 1 h 55 min
Bit rate                                 : 21.1 kb/s
Count of elements                        : 1936
Stream size                              : 17.4 MiB (0%)
Language                                 : Icelandic
Default                                  : No
Forced                                   : No

Text #15
ID                                       : 30
Format                                   : PGS
Muxing mode                              : zlib
Codec ID                                 : S_HDMV/PGS
Codec ID/Info                            : Picture based subtitle format used on BDs/HD-DVDs
Duration                                 : 1 h 55 min
Bit rate                                 : 18.7 kb/s
Count of elements                        : 1540
Stream size                              : 15.4 MiB (0%)
Language                                 : Latvian
Default                                  : No
Forced                                   : No

Text #16
ID                                       : 31
Format                                   : PGS
Muxing mode                              : zlib
Codec ID                                 : S_HDMV/PGS
Codec ID/Info                            : Picture based subtitle format used on BDs/HD-DVDs
Duration                                 : 1 h 55 min
Bit rate                                 : 19.2 kb/s
Count of elements                        : 1860
Stream size                              : 15.9 MiB (0%)
Language                                 : Lithuanian
Default                                  : No
Forced                                   : No

Text #17
ID                                       : 32
Format                                   : PGS
Muxing mode                              : zlib
Codec ID                                 : S_HDMV/PGS
Codec ID/Info                            : Picture based subtitle format used on BDs/HD-DVDs
Duration                                 : 1 h 55 min
Bit rate                                 : 22.1 kb/s
Count of elements                        : 1916
Stream size                              : 18.2 MiB (0%)
Language                                 : Polish
Default                                  : No
Forced                                   : No

Text #18
ID                                       : 33
Format                                   : PGS
Muxing mode                              : zlib
Codec ID                                 : S_HDMV/PGS
Codec ID/Info                            : Picture based subtitle format used on BDs/HD-DVDs
Duration                                 : 1 h 55 min
Bit rate                                 : 20.4 kb/s
Count of elements                        : 1706
Stream size                              : 16.8 MiB (0%)
Language                                 : Romanian
Default                                  : No
Forced                                   : No

Text #19
ID                                       : 34
Format                                   : PGS
Muxing mode                              : zlib
Codec ID                                 : S_HDMV/PGS
Codec ID/Info                            : Picture based subtitle format used on BDs/HD-DVDs
Duration                                 : 1 h 55 min
Bit rate                                 : 22.8 kb/s
Count of elements                        : 2020
Stream size                              : 18.9 MiB (0%)
Language                                 : Russian
Default                                  : No
Forced                                   : No

Text #20
ID                                       : 35
Format                                   : PGS
Muxing mode                              : zlib
Codec ID                                 : S_HDMV/PGS
Codec ID/Info                            : Picture based subtitle format used on BDs/HD-DVDs
Duration                                 : 1 h 55 min
Bit rate                                 : 19.6 kb/s
Count of elements                        : 1916
Stream size                              : 16.2 MiB (0%)
Language                                 : Serbian
Default                                  : No
Forced                                   : No

Text #21
ID                                       : 36
Format                                   : PGS
Muxing mode                              : zlib
Codec ID                                 : S_HDMV/PGS
Codec ID/Info                            : Picture based subtitle format used on BDs/HD-DVDs
Duration                                 : 1 h 55 min
Bit rate                                 : 16.8 kb/s
Count of elements                        : 1916
Stream size                              : 13.9 MiB (0%)
Language                                 : Slovenian
Default                                  : No
Forced                                   : No

Text #22
ID                                       : 37
Format                                   : PGS
Muxing mode                              : zlib
Codec ID                                 : S_HDMV/PGS
Codec ID/Info                            : Picture based subtitle format used on BDs/HD-DVDs
Duration                                 : 1 h 55 min
Bit rate                                 : 20.1 kb/s
Count of elements                        : 1916
Stream size                              : 16.6 MiB (0%)
Language                                 : Thai
Default                                  : No
Forced                                   : No

Text #23
ID                                       : 38
Format                                   : PGS
Muxing mode                              : zlib
Codec ID                                 : S_HDMV/PGS
Codec ID/Info                            : Picture based subtitle format used on BDs/HD-DVDs
Duration                                 : 1 h 55 min
Bit rate                                 : 22.0 kb/s
Count of elements                        : 1920
Stream size                              : 18.2 MiB (0%)
Language                                 : Turkish
Default                                  : No
Forced                                   : No

Text #24
ID                                       : 39
Format                                   : PGS
Muxing mode                              : zlib
Codec ID                                 : S_HDMV/PGS
Codec ID/Info                            : Picture based subtitle format used on BDs/HD-DVDs
Duration                                 : 1 h 55 min
Bit rate                                 : 20.6 kb/s
Count of elements                        : 1930
Stream size                              : 17.0 MiB (0%)
Language                                 : Ukrainian
Default                                  : No
Forced                                   : No

Text #25
ID                                       : 40
Format                                   : PGS
Muxing mode                              : zlib
Codec ID                                 : S_HDMV/PGS
Codec ID/Info                            : Picture based subtitle format used on BDs/HD-DVDs
Duration                                 : 1 h 56 min
Bit rate                                 : 38.7 kb/s
Count of elements                        : 3124
Stream size                              : 32.2 MiB (0%)
Title                                    : Traditional Chinese
Language                                 : Chinese
Default                                  : No
Forced                                   : No

Text #26
ID                                       : 41
Format                                   : PGS
Muxing mode                              : zlib
Codec ID                                 : S_HDMV/PGS
Codec ID/Info                            : Picture based subtitle format used on BDs/HD-DVDs
Duration                                 : 1 h 56 min
Bit rate                                 : 27.5 kb/s
Count of elements                        : 2858
Stream size                              : 22.9 MiB (0%)
Language                                 : Korean
Default                                  : No
Forced                                   : No

Text #27
ID                                       : 42
Format                                   : PGS
Muxing mode                              : zlib
Codec ID                                 : S_HDMV/PGS
Codec ID/Info                            : Picture based subtitle format used on BDs/HD-DVDs
Duration                                 : 1 h 51 min
Bit rate                                 : 41.6 kb/s
Count of elements                        : 2739
Stream size                              : 33.1 MiB (0%)
Title                                    : Simplified Chinese
Language                                 : Chinese
Default                                  : No
Forced                                   : No

Text #28
ID                                       : 43
Format                                   : PGS
Muxing mode                              : zlib
Codec ID                                 : S_HDMV/PGS
Codec ID/Info                            : Picture based subtitle format used on BDs/HD-DVDs
Duration                                 : 1 h 51 min
Bit rate                                 : 41.8 kb/s
Count of elements                        : 2739
Stream size                              : 33.3 MiB (0%)
Title                                    : Traditional Chinese
Language                                 : Chinese
Default                                  : No
Forced                                   : No

Text #29
ID                                       : 44
Format                                   : PGS
Muxing mode                              : zlib
Codec ID                                 : S_HDMV/PGS
Codec ID/Info                            : Picture based subtitle format used on BDs/HD-DVDs
Duration                                 : 1 h 51 min
Bit rate                                 : 42.3 kb/s
Count of elements                        : 2739
Stream size                              : 33.7 MiB (0%)
Title                                    : Simplified Chinese bilingual
Language                                 : Chinese
Default                                  : No
Forced                                   : No

Text #30
ID                                       : 45
Format                                   : PGS
Muxing mode                              : zlib
Codec ID                                 : S_HDMV/PGS
Codec ID/Info                            : Picture based subtitle format used on BDs/HD-DVDs
Duration                                 : 1 h 51 min
Bit rate                                 : 43.2 kb/s
Count of elements                        : 2739
Stream size                              : 34.5 MiB (0%)
Title                                    : Traditional Chinese bilingual
Language                                 : Chinese
Default                                  : No
Forced                                   : No

Menu
00:00:00.000                             : :Chapter 01
00:05:16.983                             : :Chapter 02
00:10:23.289                             : :Chapter 03
00:13:16.796                             : :Chapter 04
00:16:52.177                             : :Chapter 05
00:19:44.349                             : :Chapter 06
00:22:28.347                             : :Chapter 07
00:27:03.622                             : :Chapter 08
00:29:16.254                             : :Chapter 09
00:33:17.829                             : :Chapter 10
00:35:06.771                             : :Chapter 11
00:37:49.433                             : :Chapter 12
00:40:46.277                             : :Chapter 13
00:44:10.314                             : :Chapter 14
00:49:17.287                             : :Chapter 15
00:52:46.329                             : :Chapter 16
00:55:33.663                             : :Chapter 17
01:01:40.863                             : :Chapter 18
01:05:20.750                             : :Chapter 19
01:08:42.952                             : :Chapter 20
01:12:43.192                             : :Chapter 21
01:15:50.379                             : :Chapter 22
01:18:38.380                             : :Chapter 23
01:22:20.936                             : :Chapter 24
01:26:43.531                             : :Chapter 25
01:29:11.512                             : :Chapter 26
01:33:59.216                             : :Chapter 27
01:38:54.595                             : :Chapter 28
01:43:26.200                             : :Chapter 29
01:49:03.537                             : :Chapter 30





Link



https://www.fshare.vn/file/DUWRTIS69F3W





Sub

https://subscene.com/subtitles/300/vietnamese
Reply With Quote
Reply

Thread Tools

Posting Rules
You may not post new threads
You may not post replies
You may not post attachments
You may not edit your posts

BB code is On
Smilies are On
[IMG] code is On
HTML code is Off

Forum Jump

All times are GMT +7. The time now is 17:54.
Chịu trách nhiệm nội dung: Bạch Thành Trung © 2019 Công ty TNHH Thật Vi Diệu
ĐC tầng 4, số 6-8 Đường D2, Bình Thạnh, Hồ Chí Minh, Việt Nam - SĐT 0981323799 - MST 0313906593
Giấy phép thiết lập MXH số 334/GP-BTTTT, Ký ngày: 19/08/2019