[Hành động - Siêu tưởng][M2TS] The Matrix Trilogy Remastered Edition - vozForums
vozForums
Go Back   vozForums > Sản phẩm công nghệ > Multimedia > HDmedia
Reply
 
Thread Tools
  #1  
Old 30-12-2018, 08:50
Suachua's Avatar
Suachua Suachua is offline
Senior Member
 
Join Date: 07-2006
Location: Hà Nội
Posts: 3,248
[Hành động - Siêu tưởng][M2TS] The Matrix Trilogy Remastered Edition



Media info

Complete name : The Matrix 1999 1080p Blu-ray AVC Atmos 7.1.m2ts
Format : BDAV
Format/Info : Blu-ray Video
File size : 27.9 GiB
Duration : 2 h 16 min
Overall bit rate mode : Variable
Overall bit rate : 29.3 Mb/s
Maximum Overall bit rate : 48.0 Mb/s

Video

Format : AVC
Format/Info : Advanced Video Codec
Format profile : High@L4.1
Format settings : CABAC / 4 Ref Frames
Format settings, CABAC : Yes
Format settings, RefFrames : 4 frames
Duration : 2 h 16 min
Bit rate mode : Variable
Bit rate : 27.7 Mb/s
Maximum bit rate : 24.0 Mb/s
Width : 1 920 pixels
Height : 1 080 pixels
Display aspect ratio : 16:9
Frame rate : 23.976 (24000/1001) FPS
Color space : YUV
Chroma subsampling : 4:2:0
Bit depth : 8 bits
Scan type : Progressive
Bits/(Pixel*Frame) : 0.557
Stream size : 26.4 GiB (94%)

Audio

Format : AC-3 MLP FBA 16-ch
Format/Info : Audio Coding 3 + Meridian Lossless Packing FBA with 16-channel presentation
Commercial name : Dolby TrueHD with Dolby Atmos
Muxing mode : Stream extension
Duration : 2 h 16 min
Bit rate mode : Variable
Bit rate : 448 kb/s
Maximum bit rate : 7 794 kb/s
Channel(s) : 8 channels
Channel layout : L R C LFE Ls Rs Lb Rb
Sampling rate : 48.0 kHz
Frame rate : 31.250 FPS (1536 SPF)
Bit depth : 16 bits
Compression mode : Lossy
Stream size : 437 MiB (2%)
Language : English
Service kind : Complete Main
Number of dynamic objects : 11
Bed channel count : 1 channel
Bed channel configuration : LFE

Text

Format : PGS
Language : English


Nội dung

The Matrix (MaTrận) là bộ phim khoa học giả tưởng về tương lai. Trong tương lai đó, Thomas, biệt danh Neo, là một hacker luôn có cảm giác khác thường về thế giới thực. Cho tới khi người đàn ông tự xưng là Morpheus tìm đến anh. Người đàn ông này nói cho anh biết, thế giới mà mọi người coi là thực chỉ là một chương trình giả lập để máy móc cai trị con người. Chỉ có một người có thể phá được Ma trận. Những người thật sống sót còn lại cuối cùng và những nhân viên Ma trận đều cùng đi tìm người đó. Và người đó chính là anh – Neo…

Download

http://www.fshare.vn/file/ZO6HLDQC7OKH


Phụ đề

http://phudeviet.org/subtitle/The-Matrix/2359.html
Reply With Quote
  #2  
Old 30-12-2018, 08:51
Suachua's Avatar
Suachua Suachua is offline
Senior Member
 
Join Date: 07-2006
Location: Hà Nội
Posts: 3,248
Re: [Hành động - Siêu tưởng][M2TS] The Matrix Trilogy Remastered Edition



Media info

Complete name : The Matrix Reloaded 2003 1080p Blu-ray AVC Atmos 7.1.m2ts
Format : BDAV
Format/Info : Blu-ray Video
File size : 26.1 GiB
Duration : 2 h 18 min
Overall bit rate mode : Variable
Overall bit rate : 27.0 Mb/s
Maximum Overall bit rate : 48.0 Mb/s

Video

Format : AVC
Format/Info : Advanced Video Codec
Format profile : High@L4.1
Format settings : CABAC / 4 Ref Frames
Format settings, CABAC : Yes
Format settings, RefFrames : 4 frames
Duration : 2 h 18 min
Bit rate mode : Variable
Bit rate : 25.5 Mb/s
Maximum bit rate : 23.0 Mb/s
Width : 1 920 pixels
Height : 1 080 pixels
Display aspect ratio : 16:9
Frame rate : 23.976 (24000/1001) FPS
Color space : YUV
Chroma subsampling : 4:2:0
Bit depth : 8 bits
Scan type : Progressive
Bits/(Pixel*Frame) : 0.513
Stream size : 24.6 GiB (94%)

Audio

Format : AC-3 MLP FBA 16-ch
Format/Info : Audio Coding 3 + Meridian Lossless Packing FBA with 16-channel presentation
Commercial name : Dolby TrueHD with Dolby Atmos
Muxing mode : Stream extension
Duration : 2 h 18 min
Bit rate mode : Variable
Bit rate : 448 kb/s
Maximum bit rate : 5 928 kb/s
Channel(s) : 8 channels
Channel layout : L R C LFE Ls Rs Lb Rb
Sampling rate : 48.0 kHz
Frame rate : 31.250 FPS (1536 SPF)
Bit depth : 16 bits
Compression mode : Lossy
Stream size : 443 MiB (2%)
Language : English
Service kind : Complete Main
Number of dynamic objects : 11
Bed channel count : 1 channel
Bed channel configuration : LFE

Text

Format : PGS
Language : English


Nội dung

6 tháng sau sự kiện ở phần 1, Neo được coi là cứu tinh mới của loài người. Trước nguy cơ bị hàng nghìn cỗ máy săn lùng tấn công vào thành phố Zion, bộ ba Neo, Morpheus, Trinity phải đi tìm lời khuyên từ Nhà tiên tri. Trong khi đó, đặc vụ Smith lại trở nên mạnh hơn bao giờ khi hắn có khả năng nhân số lượng bản thể lên nhiều lần.

Download

http://www.fshare.vn/file/TQVYWG6AM22U


Phụ đề

https://subscene.com/subtitles/the-matrix-reloaded
Reply With Quote
  #3  
Old 30-12-2018, 08:52
Suachua's Avatar
Suachua Suachua is offline
Senior Member
 
Join Date: 07-2006
Location: Hà Nội
Posts: 3,248
Re: [Hành động - Siêu tưởng][M2TS] The Matrix Trilogy Remastered Edition



Media info

Complete name : The Matrix Revolutions 2003 1080p Blu-ray AVC Atmos 7.1.m2ts
Format : BDAV
Format/Info : Blu-ray Video
File size : 25.0 GiB
Duration : 2 h 9 min
Overall bit rate mode : Variable
Overall bit rate : 27.7 Mb/s
Maximum Overall bit rate : 48.0 Mb/s

Video

Format : AVC
Format/Info : Advanced Video Codec
Format profile : High@L4.1
Format settings : CABAC / 4 Ref Frames
Format settings, CABAC : Yes
Format settings, RefFrames : 4 frames
Format settings, GOP : M=3, N=12
Duration : 2 h 9 min
Bit rate mode : Variable
Bit rate : 26.1 Mb/s
Maximum bit rate : 23.6 Mb/s
Width : 1 920 pixels
Height : 1 080 pixels
Display aspect ratio : 16:9
Frame rate : 23.976 (24000/1001) FPS
Color space : YUV
Chroma subsampling : 4:2:0
Bit depth : 8 bits
Scan type : Progressive
Bits/(Pixel*Frame) : 0.525
Stream size : 23.6 GiB (94%)

Audio

Format : AC-3 MLP FBA 16-ch
Format/Info : Audio Coding 3 + Meridian Lossless Packing FBA with 16-channel presentation
Commercial name : Dolby TrueHD with Dolby Atmos
Muxing mode : Stream extension
Duration : 2 h 9 min
Bit rate mode : Variable
Bit rate : 448 kb/s
Maximum bit rate : 6 264 kb/s
Channel(s) : 8 channels
Channel layout : L R C LFE Ls Rs Lb Rb
Sampling rate : 48.0 kHz
Frame rate : 31.250 FPS (1536 SPF)
Bit depth : 16 bits
Compression mode : Lossy
Stream size : 414 MiB (2%)
Language : English
Service kind : Complete Main
Number of dynamic objects : 11
Bed channel count : 1 channel
Bed channel configuration : LFE

Text

Format : PGS
Language : English


Nội dung

Cư dân thành phố Zion chuẩn bị cho cuộc bảo vệ thành phố khỏi làn sóng tấn công của các cỗ máy. Trong khi đó, Neo bị mắc kẹt ở khoảng giữa "thế giới thực" và ma trận. Còn đặc vụ Smith lại đang có một toan tính có thể tiêu diệt cả hai phe máy móc lẫn con người.

Download

http://www.fshare.vn/file/6FFJ73J6Y4C3


Phụ đề

https://subscene.com/subtitles/the-matrix-revolutions
Reply With Quote
Reply

Thread Tools

Posting Rules
You may not post new threads
You may not post replies
You may not post attachments
You may not edit your posts

BB code is On
Smilies are On
[IMG] code is On
HTML code is Off

Forum Jump

All times are GMT +7. The time now is 04:17.