Fshare - My Blu-ray collection - Page 3 - vozForums
vozForums
Go Back   vozForums > Sản phẩm công nghệ > Multimedia > HDmedia
Reply
 
Thread Tools
  #21  
Old 11-04-2018, 21:07
Tituti's Avatar
Tituti Tituti is offline
Senior Member
 
Join Date: 02-2018
Posts: 2,736
Re: Fshare - My Blu-ray collection

Lan Kwaii Fong 2011













Media info

Complete name : Lan Kwaii Fong 2011 1080p Blu-ray AVC DTS-HD MA 5.1.m2ts
Format : BDAV
Format/Info : Blu-ray Video
File size : 16.3 GiB
Duration : 1 h 36 min
Overall bit rate mode : Variable
Overall bit rate : 24.1 Mb/s
Maximum Overall bit rate : 35.5 Mb/s

Video

Format : AVC
Format/Info : Advanced Video Codec
Format profile : High@L4.1
Format settings : CABAC / 4 Ref Frames
Format settings, CABAC : Yes
Format settings, ReFrames : 4 frames
Duration : 1 h 36 min
Bit rate mode : Variable
Maximum bit rate : 35.0 Mb/s
Width : 1 920 pixels
Height : 1 080 pixels
Display aspect ratio : 16:9
Frame rate : 24.000 FPS
Color space : YUV
Chroma subsampling : 4:2:0
Bit depth : 8 bits
Scan type : Progressive

Audio

Format : DTS
Format/Info : Digital Theater Systems
Format profile : MA / Core
Muxing mode : Stream extension
Duration : 1 h 36 min
Bit rate mode : Variable / Constant
Bit rate : 1 509 kb/s
Channel(s) : 8 channels / 6 channels
Channel positions : Front: L C R, Side: L R, Back: L R, LFE / Front: L C R, Side: L R, LFE
Sampling rate : 48.0 kHz
Frame rate : 93.750 FPS (512 SPF)
Bit depth : 16 bits
Compression mode : Lossless / Lossy
Language : Chinese


Nội dung

Lan Kwai Fong, một nổi tiếng bên vị trí ở Hồng Kông với tải trọng của các câu lạc bộ đêm và quán bar. Mọi người đều thích đi LKF cho vui, một đêm đứng hoặc tình yêu cho dù sự thật. LKF đã chiếm được niềm vui và nỗi buồn của nhiều người...


Download

https://www.fshare.vn/file/2RGNLSUOLOB7


Phụ đề

https://www.fshare.vn/file/CZN2ZICWBIE6
Reply With Quote
  #22  
Old 12-04-2018, 23:24
Elifx Elifx is offline
Senior Member
 
Join Date: 01-2017
Posts: 97
Re: Fshare - My Blu-ray collection

Cám ơn bác vì cái Interstellar
Mà có Gravity luôn không ợ?
Reply With Quote
  #23  
Old 13-04-2018, 02:05
Tituti's Avatar
Tituti Tituti is offline
Senior Member
 
Join Date: 02-2018
Posts: 2,736
Re: Fshare - My Blu-ray collection

Quote:
Originally Posted by Elifx View Post
Cám ơn bác vì cái Interstellar
Mà có Gravity luôn không ợ?
Để em xin xem người ta có cho tải về không đã
Khổ lắm bác đặt pass khi muốn tải về mà hỏi pass là gì thì không thấy nói năng gì mới lạ, không hiểu là muốn như nào nữa.
Reply With Quote
  #24  
Old 13-04-2018, 21:06
Tituti's Avatar
Tituti Tituti is offline
Senior Member
 
Join Date: 02-2018
Posts: 2,736
Re: Fshare - My Blu-ray collection

Inception 2010




























Media info

Complete name : Inception 2010 1080p Blu-ray VC-1 DTS-HD MA 5.1.m2ts
Format : BDAV
Format/Info : Blu-ray Video
File size : 34.0 GiB
Duration : 3 h 10 min
Overall bit rate mode : Variable
Overall bit rate : 25.6 Mb/s
Maximum Overall bit rate : 35.5 Mb/s

Video

Format : VC-1
Format profile : Advanced@L3
Duration : 3 h 10 min
Width : 1 920 pixels
Height : 1 080 pixels
Display aspect ratio : 16:9
Frame rate : 23.976 (24000/1001) FPS
Color space : YUV
Chroma subsampling : 4:2:0
Bit depth : 8 bits
Scan type : Progressive
Compression mode : Lossy

Audio

Format : DTS
Format/Info : Digital Theater Systems
Format profile : MA / Core
Muxing mode : Stream extension
Duration : 3 h 10 min
Bit rate mode : Variable / Constant
Bit rate : 1 509 kb/s
Channel(s) : 6 channels
Channel positions : Front: L C R, Side: L R, LFE
Sampling rate : 48.0 kHz
Frame rate : 93.750 FPS (512 SPF)
Bit depth : 24 bits
Compression mode : Lossless / Lossy
Language : English


Nội dung

Dom Cobb không phải là một đạo chích tầm thường, anh ta là bực thầy về đánh cắp, có thể xâm nhập vào cõi vô thức của bất kỳ người nào để đánh cắp những bí mật thầm kín nhất của người đó. Muốn thực hiện chuyện này, anh ta bước vào những giấc mơ của người đó.

“Chúng ta tạo ra thế giới của giấc mơ. Chúng ta đưa đối tượng vào thế giới giấc mơ đó và đối tượng sẽ phun ra hết những bí mật, rồi chúng ta sẽ đánh cắp các bí mật đó.”

Nhưng đã đến lúc Cobb mệt mỏi với những tội phạm thực hiện theo yêu cầu của các tổng công ty. Anh muốn quay lại cuộc sống bình thường như mọi người.

Muốn vậy, anh phải làm một công tác cuối cùng cho Saito, một đại gia nắm tẩy của Cobb trước nhà chức trách Mỹ.
Nhưng thay vì đánh cắp thông tin, Saito muốn cấy một ý tưởng vào óc của tổng công ty đối thủ cạnh tranh. Khi đã mang ý tưởng ấy rồi, đối thủ này chỉ có một con đường là sập tiệm.


Download

http://www.fshare.vn/file/FLCQC8T8DX97


Phụ đề

http://www.fshare.vn/file/RRBXIHNH9JM9
Reply With Quote
  #25  
Old 13-04-2018, 23:13
Tituti's Avatar
Tituti Tituti is offline
Senior Member
 
Join Date: 02-2018
Posts: 2,736
Re: Fshare - My Blu-ray collection

Air Force One 1997














Media info

Complete name : Air Force One 1997 1080p Blu-ray AVC DTS-HD MA 5.1.m2ts
Format : BDAV
Format/Info : Blu-ray Video
File size : 28.6 GiB
Duration : 2 h 4 min
Overall bit rate mode : Variable
Overall bit rate : 32.8 Mb/s
Maximum Overall bit rate : 35.5 Mb/s

Video

Format : AVC
Format/Info : Advanced Video Codec
Format profile : High@L4.1
Format settings : CABAC / 3 Ref Frames
Format settings, CABAC : Yes
Format settings, ReFrames : 3 frames
Duration : 2 h 4 min
Bit rate mode : Variable
Maximum bit rate : 40.0 Mb/s
Width : 1 920 pixels
Height : 1 080 pixels
Display aspect ratio : 16:9
Frame rate : 23.976 (24000/1001) FPS
Color space : YUV
Chroma subsampling : 4:2:0
Bit depth : 8 bits
Scan type : Progressive
Language : English

Audio #1

Format : PCM
Format settings : Big / Signed
Muxing mode : Blu-ray
Duration : 2 h 4 min
Bit rate mode : Constant
Bit rate : 4 608 kb/s
Channel(s) : 6 channels
Channel positions : Front: L C R, Side: L R, LFE
Sampling rate : 48.0 kHz
Bit depth : 16 bits
Stream size : 4.01 GiB (14%)
Language : English

Audio #2

Format : DTS
Format/Info : Digital Theater Systems
Format profile : MA / Core
Muxing mode : Stream extension
Duration : 2 h 4 min
Bit rate mode : Variable / Constant
Bit rate : 1 509 kb/s
Channel(s) : 6 channels
Channel positions : Front: L C R, Side: L R, LFE
Sampling rate : 48.0 kHz
Frame rate : 93.750 FPS (512 SPF)
Bit depth : 16 bits
Compression mode : Lossless / Lossy
Language : English

Text #1

Format : PGS
Language : English

Text #2

Format : PGS
Language : Vietnamese


Nội dung

Chiếc máy bay chở Tổng thống Mỹ James Marshall bị một nhóm khủng bố Kazakhstan khống chế và toàn bộ nhân viên cũng như vợ con ông đều bị bắt giữ làm con tin. Bọn chúng đòi ông gây áp lực với nước Nga để trả tự do cho tên phát xít Radek.Bọn khủng bố cho rằng ông đã ra khỏi máy bay, bắt giữ toàn bộ 50 nhân viên lẫn vợ con tổng thống có mặt trên chiếc phi cơ làm áp lực buộc ông thực hiện yêu sách của chúng. Tên cầm đầu Ivan muốn tổng thống Mỹ gọi điện cho lãnh đạo nước Nga để thả tên độc tài phát xít Radek. Nhưng trên thực tế James chưa hề rời khỏi máy bay mà bị kẹt ở khoang dưới của chuyên cơ và đang vô cùng lo lắng cho mọi người, trong đó có vợ ông Grace và cô con gái 12 tuổi xinh xắn Alice.

Trong khi đó tại thủ đô Washington DC, phó tổng thống Kathryn Bennett (Glenn Close) được triệu tập về Nhà trắng đối mặt với cuộc khủng hoảng đang diễn ra. Tình hình trở nên căng thẳng hơn khi gã Ivan bắt đầu giết con tin cứ 30 phút một người cho đến khi yêu cầu của hắn được đáp ứng. Bộ trưởng quốc phòng Mỹ Walter Dean đang thúc giục quốc hội trao quyền quyết định cho Bennett với suy tính: nếu làm như vậy thì bọn khủng bố sẽ không thể tiếp tục gây áp lực với Mỹ. Với những phẩm chất mẫu mực: quyết đoán, kiên định, một người chồng người cha tốt và luôn đặt lợi ích tập thể lên trên lợi ích cá nhân, tổng thống James đã không chịu khuất phục. Một thân một mình, ông phải tự tìm cách cứu mọi người và chính bản thân ông. Chỉ có duy nhất một lợi thế là bọn khủng bố không hề biết vị trí đích xác của ông. James đã bắt liên lạc với Bennett bằng chiếc điện thoại dùng trong trường hợp khẩn cấp và dần dần lật lại thế cờ


Download

reup


Phụ đề

https://www.fshare.vn/file/ZV5SCZO6JXQN

Last edited by Tituti; 16-04-2018 at 18:44.
Reply With Quote
  #26  
Old 13-04-2018, 23:17
Tituti's Avatar
Tituti Tituti is offline
Senior Member
 
Join Date: 02-2018
Posts: 2,736
Re: Fshare - My Blu-ray collection

Ben Hur 1959




























Media info

Complete name : Ben Hur 1959 1080p Blu-ray AVC DTS-HD MA 5.1 Disc 1.m2ts
Format : BDAV
Format/Info : Blu-ray Video
File size : 32.8 GiB
Duration : 2 h 21 min
Overall bit rate mode : Variable
Overall bit rate : 33.1 Mb/s
Maximum Overall bit rate : 35.5 Mb/s

Video

Format : AVC
Format/Info : Advanced Video Codec
Format profile : High@L4.1
Format settings : CABAC / 2 Ref Frames
Format settings, CABAC : Yes
Format settings, ReFrames : 2 frames
Duration : 2 h 21 min
Bit rate mode : Variable
Width : 1 920 pixels
Height : 1 080 pixels
Display aspect ratio : 16:9
Frame rate : 23.976 (24000/1001) FPS
Color space : YUV
Chroma subsampling : 4:2:0
Bit depth : 8 bits
Scan type : Progressive

Audio

Format : DTS
Format/Info : Digital Theater Systems
Format profile : MA / Core
Muxing mode : Stream extension
Duration : 2 h 21 min
Bit rate mode : Variable / Constant
Bit rate : 1 509 kb/s
Channel(s) : 6 channels
Channel positions : Front: L C R, Side: L R, LFE
Sampling rate : 48.0 kHz
Frame rate : 93.750 FPS (512 SPF)
Bit depth : 24 bits
Compression mode : Lossless / Lossy
Language : English


Complete name : Ben Hur 1959 1080p Blu-ray AVC DTS-HD MA 5.1 Disc 2.m2ts
Format : BDAV
Format/Info : Blu-ray Video
File size : 18.6 GiB
Duration : 1 h 20 min
Overall bit rate mode : Variable
Overall bit rate : 33.1 Mb/s
Maximum Overall bit rate : 35.5 Mb/s

Video

Format : AVC
Format/Info : Advanced Video Codec
Format profile : High@L4.1
Format settings : CABAC / 2 Ref Frames
Format settings, CABAC : Yes
Format settings, ReFrames : 2 frames
Duration : 1 h 20 min
Bit rate mode : Variable
Width : 1 920 pixels
Height : 1 080 pixels
Display aspect ratio : 16:9
Frame rate : 23.976 (24000/1001) FPS
Color space : YUV
Chroma subsampling : 4:2:0
Bit depth : 8 bits
Scan type : Progressive

Audio

Format : DTS
Format/Info : Digital Theater Systems
Format profile : MA / Core
Muxing mode : Stream extension
Duration : 1 h 20 min
Bit rate mode : Variable / Constant
Bit rate : 1 509 kb/s
Channel(s) : 6 channels
Channel positions : Front: L C R, Side: L R, LFE
Sampling rate : 48.0 kHz
Frame rate : 93.750 FPS (512 SPF)
Bit depth : 24 bits
Compression mode : Lossless / Lossy
Language : English


Nội dung

Ben Hur và Messala là hai người bạn thân nhau từ thuở bé. Lớn lên, lý tưởng, mục đích sống và quan niệm của họ đã đẩy hai người về hai bên chiến tuyến. Một người phục vụ cho đế chế La Mã, người kia trung thành với Tổ quốc…

Phim có bối cảnh của những năm đầu công nguyên. Vùng đất Judée thuộc quyền cai trị của đế quốc La Mã. Từ Roma, hoàng đế August Cesar đã ra một quyết định hà khắc: bắt buộc tất cả những người Do Thái ở Judée phải trở về nguyên quán để kiểm tra dân số, hòng thâu tóm và tránh làm thất thoát tiền thuế. Từ khắp mọi nơi, những người Do Thái trở về cố hương. Họ đi qua thành Jerusalem vào lễ thánh để cầu xin sự tự do cho vùng đất của họ. Trong đoàn người ấy có vợ chồng bác thợ mộc Joseph từ Hebron trở về Bethlehem.

Một đêm nọ, trên bầu trời xuất hiện vầng sáng chói lòa, bà vợ bác thợ mộc sinh hạ được một cậu con trai kháu khỉnh trong chuồng cỏ, đặt tên là Jesus. Cộng đồng người Do Thái được lập lại trật tự, các phần tử phản loạn chống lại triều đình La Mã bị trấn áp, công việc này do Messala (Stephen Boyd), một viên tướng trẻ, con trai của cựu thống đốc Judée thực hiện. Một hôm một vị khách xuất hiện và xin vào yết kiến tướng Messala, đó là Judah Ben Hur (Charlton Heston), một ông hoàng có dòng dõi cao quý ở Judée. Messala và Ben Hur vốn là hai người bạn vong niên, thân thiết từ nhỏ. Mặc dù tình bạn vẫn thắm thiết như xưa, nhưng hai người bạn ngày nào đã ở hai địa vị khác nhau, với những chí hướng hoàn toàn khác nhau. Messala quyết tâm theo đuổi công danh bằng việc phục vụ và bảo vệ đế chế La Mã. Ben Hur thì trung thành với Tổ quốc, đứng về phía những người bị áp bức…


Download

https://www.fshare.vn/file/ZU3KCPAZV5TH
https://www.fshare.vn/file/5SASVOIBO9WK


Phụ đề

https://www.fshare.vn/file/EMPFOU19YTY4
https://www.fshare.vn/file/W85R6AMZSSC3
Reply With Quote
  #27  
Old 13-04-2018, 23:21
Tituti's Avatar
Tituti Tituti is offline
Senior Member
 
Join Date: 02-2018
Posts: 2,736
Re: Fshare - My Blu-ray collection

Con Air 1997













Media info

Complete name : Con Air 1997 1080p Blu-ray VC-1 DTS 5.1.m2ts
Format : BDAV
Format/Info : Blu-ray Video
File size : 20.8 GiB
Duration : 1 h 55 min
Overall bit rate mode : Variable
Overall bit rate : 25.8 Mb/s
Maximum Overall bit rate : 35.5 Mb/s

Video

Format : VC-1
Format profile : Advanced@L3
Duration : 1 h 55 min
Bit rate : 23.3 Mb/s
Width : 1 920 pixels
Height : 1 080 pixels
Display aspect ratio : 16:9
Frame rate : 23.976 (24000/1001) FPS
Color space : YUV
Chroma subsampling : 4:2:0
Bit depth : 8 bits
Scan type : Progressive
Compression mode : Lossy
Bits/(Pixel*Frame) : 0.469
Stream size : 18.8 GiB (90%)

Audio

Format : DTS
Format/Info : Digital Theater Systems
Duration : 1 h 55 min
Bit rate mode : Constant
Bit rate : 1 510 kb/s
Channel(s) : 6 channels
Channel positions : Front: L C R, Side: L R, LFE
Sampling rate : 48.0 kHz
Frame rate : 93.750 FPS (512 SPF)
Bit depth : 24 bits
Compression mode : Lossy
Stream size : 1.22 GiB (6%)
Language : English


Nội dung

Viên sĩ quan quân đội Cameron Poe (Nicolas Cage) về nhà thăm vợ và hết sức vui mừng khi biết mình sắp được làm cha. Nhưng niềm hạnh phúc không kéo dài được lâu khi Cameron vướng vào một vụ ngộ sát. Một toán du đãng giở trò trêu ghẹo cô vợ và anh đã không kiềm chế được. Tuy chỉ là ngộ sát nhưng Cameron vẫn phải nhận bản án mấy năm tù.

Ngày nào Cameron cũng nhớ về gia đình bé nhỏ của mình. Ngày mãn hạn tù của Cameron đã đến, anh háo hức cầm chú thỏ bông trắng làm quà cho con gái. Nhưng dường như mọi sự đã diễn ra không đúng như mong đợi của Cameron khi chiếc phi cơ Con Air bị đám tù nhân có âm mưu tẩu thoát khống chế. Vô tình anh bị kẹt giữa hai phe đối địch, một bên là những tên tội phạm thuộc loại tàn ác nguy hiểm nhất, một bên là những tay cảnh sát mà anh không hề muốn hợp tác chút nào.


Download

https://www.fshare.vn/file/QFMKPMQHZA4E


Phụ đề

https://www.fshare.vn/file/RGOUYXIJUCU3
Reply With Quote
  #28  
Old 13-04-2018, 23:24
Tituti's Avatar
Tituti Tituti is offline
Senior Member
 
Join Date: 02-2018
Posts: 2,736
Re: Fshare - My Blu-ray collection

Three Kings 1999




















Media info

Complete name : Three Kings 1999 1080p CEE Blu-ray VC-1 DTS-HD MA 5.1.m2ts
Format : BDAV
Format/Info : Blu-ray Video
File size : 23.0 GiB
Duration : 1 h 54 min
Overall bit rate mode : Variable
Overall bit rate : 28.7 Mb/s
Maximum Overall bit rate : 35.5 Mb/s

Video

Format : VC-1
Format profile : Advanced@L3
Duration : 1 h 54 min
Width : 1 920 pixels
Height : 1 080 pixels
Display aspect ratio : 16:9
Frame rate : 23.976 (24000/1001) FPS
Color space : YUV
Chroma subsampling : 4:2:0
Bit depth : 8 bits
Scan type : Progressive
Compression mode : Lossy

Audio

Format : DTS
Format/Info : Digital Theater Systems
Format profile : MA / Core
Muxing mode : Stream extension
Duration : 1 h 54 min
Bit rate mode : Variable / Constant
Bit rate : 1 509 kb/s
Channel(s) : 6 channels
Channel positions : Front: L C R, Side: L R, LFE
Sampling rate : 48.0 kHz
Frame rate : 93.750 FPS (512 SPF)
Bit depth : 24 bits
Compression mode : Lossless / Lossy
Language : English


Nội dung

Sau cuộc chiến vùng vịnh, lực lượng liên quân vừa ký thỏa thuận ngừng bắn với Iraq. Tại một căn cứ quân sự Mỹ trên sa mạc gần Kuwait, trung sĩ Troy Barlow (Mark Wahlberg) cùng hai binh nhất bắt được một nhóm binh sĩ Iraq. Khi lục soát những người này, họ tìm thấy một tấm bản đồ trong quần lót một sĩ quan. Linh tính mách bảo cho Troy biết rằng đó có thể là một tấm bản đồ quan trọng. Viên trung sĩ quyết định không báo cáo sự việc cho những chỉ huy cấp cao hơn mà đưa bản đồ cho thượng sĩ Elgin, một người bạn thân của anh.
Tin về việc tìm thấy một tấm bản đồ tuyệt mật của quân đội Iraq đến tai thiếu tá Archie Gates (George Clooney), chỉ huy lực lượng đặc nhiệm tại căn cứ. Archie sang lều của Troy và Elgin, thông báo rằng thứ mà họ tìm được có thể là tấm bản đồ về hầm ngầm bí mật của tổng thống Iraq Saddam Hussein tại Kuwait, nơi cất giấu hàng trăm tấn vàng mà quân Iraq cướp từ Kuwait. Troy cho rằng Archie không nên giao nộp tấm bản đồ cho cấp trên. Thay vào đó, cả nhóm sẽ tự đi tìm những kho báu để mưu lợi riêng. Archie đồng ý. Cả nhóm bắt đầu cuộc hành trình trong một chiếc xe bọc thép đa dụng. Nhưng họ từ bỏ ý định khi chứng kiến những vụ thảm sát của quân đội Iraq.


Download

https://www.fshare.vn/file/HEAYQHZ7POZQ


Phụ đề

https://www.fshare.vn/file/FMMWIJWNB929
Reply With Quote
  #29  
Old 14-04-2018, 20:02
Tituti's Avatar
Tituti Tituti is offline
Senior Member
 
Join Date: 02-2018
Posts: 2,736
Re: Fshare - My Blu-ray collection

Deep Impact 1998​












Media info

Complete name : Deep Impact 1998 1080p Blu-ray AVC TrueHD 5.1.m2ts
Format : BDAV
Format/Info : Blu-ray Video
File size : 33.8 GiB
Duration : 2 h 1 min
Overall bit rate mode : Variable
Overall bit rate : 40.0 Mb/s
Maximum Overall bit rate : 35.5 Mb/s

Video

Format : AVC
Format/Info : Advanced Video Codec
Format profile : High@L4.1
Format settings : CABAC / 4 Ref Frames
Format settings, CABAC : Yes
Format settings, ReFrames : 4 frames
Duration : 2 h 1 min
Bit rate mode : Variable
Bit rate : 37.7 Mb/s
Maximum bit rate : 34.4 Mb/s
Width : 1 920 pixels
Height : 1 080 pixels
Display aspect ratio : 16:9
Frame rate : 23.976 (24000/1001) FPS
Color space : YUV
Chroma subsampling : 4:2:0
Bit depth : 8 bits
Scan type : Progressive
Bits/(Pixel*Frame) : 0.759
Stream size : 32.0 GiB (94%)
Color range : Limited
Color primaries : BT.709
Transfer characteristics : BT.709
Matrix coefficients : BT.709

Audio

Format : TrueHD / AC-3
Muxing mode : Stream extension
Duration : 2 h 1 min
Bit rate mode : Variable / Constant
Bit rate : 640 kb/s
Maximum bit rate : 5 544 kb/s
Channel(s) : 6 channels
Channel positions : Front: L C R, Side: L R, LFE
Sampling rate : 48.0 kHz
Frame rate : 31.250 FPS (1536 SPF)
Bit depth : 16 bits
Stream size : 555 MiB (2%)
Language : English


Nội dung

Một thiên thạch rơi xuống vùng biển Bắc Đại Tây Dương, gây nên cơn sóng thần có độ cao tới 400m. Sóng thần nhấn chìm toàn bộ bang Ohio, khu vực thung lũng Tennessee. Các thành phố bờ biển như New York, Philadelphia, Washington đều bị phá hủy. Một bầu không khí chết chóc và hoảng loạn bao trùm nước Mỹ. Tổng thống tuyên bố tình trạng khẩn cấp và ra lệnh di tản người dân. Trong khi đó, ở trên không gian, thuyền trưởng Tanner và đồng đội quyết định lao tàu Messiah vào thiên thạch còn lại để phá hủy nó. Tuy nhiên, việc này chẳng hề dễ dàng...


Download

https://www.fshare.vn/file/MO9YU5R7DZKN

Phụ đề

https://www.fshare.vn/file/NRLF2OZN1V3J
Reply With Quote
  #30  
Old 14-04-2018, 20:06
Tituti's Avatar
Tituti Tituti is offline
Senior Member
 
Join Date: 02-2018
Posts: 2,736
Re: Fshare - My Blu-ray collection

Avatar 2009








































Media info

Complete name : Avatar 2009 1080p Blu-ray DTS-HD MA 5.1.m2ts
Format : BDAV
Format/Info : Blu-ray Video
File size : 30.2 GiB
Duration : 2 h 41 min
Overall bit rate mode : Variable
Overall bit rate : 26.7 Mb/s
Maximum Overall bit rate : 35.5 Mb/s

Video

Format : AVC
Format/Info : Advanced Video Codec
Format profile : High@L4.1
Format settings : CABAC / 3 Ref Frames
Format settings, CABAC : Yes
Format settings, ReFrames : 3 frames
Format settings, GOP : M=3, N=24
Duration : 2 h 41 min
Bit rate mode : Variable
Maximum bit rate : 40.0 Mb/s
Width : 1 920 pixels
Height : 1 080 pixels
Display aspect ratio : 16:9
Frame rate : 23.976 (24000/1001) FPS
Color space : YUV
Chroma subsampling : 4:2:0
Bit depth : 8 bits
Scan type : Progressive

Audio

Format : DTS
Format/Info : Digital Theater Systems
Format profile : MA / Core
Muxing mode : Stream extension
Duration : 2 h 41 min
Bit rate mode : Variable / Constant
Bit rate : 1 509 kb/s
Channel(s) : 6 channels
Channel positions : Front: L C R, Side: L R, LFE
Sampling rate : 48.0 kHz
Frame rate : 93.750 FPS (512 SPF)
Bit depth : 24 bits
Compression mode : Lossless / Lossy
Delay relative to video : 3 ms
Language : English


Nội dung

Avatar là câu chuyện về người anh hùng “bất đắc dĩ” Jake Sully – một cựu sĩ quan thủy quân lục chiến bị liệt nửa thân. Người anh em sinh đôi của anh được chọn để tham gia vào chương trình cấy gien với người ngoài hành tinh Na’vi nhằm tạo ra một giống loài mới có thể hít thở không khí tại hành tinh Pandora. Giống người mới này được gọi là Avatar. Sau khi anh của Jake bị giết, Jake được chọn để thay thế anh mình và đã trở thành một Avatar, Jake có nhiệm vụ đi tìm hiểu và nghiên cứu hành tinh Pandora. Những thông tin mà anh thu thập được rất có giá trị cho chiến dịch xâm chiếm hành tinh xanh thứ hai này của loài người.

Download

https://www.fshare.vn/file/EEKG7E6BTUKZ

Phụ đề

https://www.fshare.vn/file/HOP9WJOIALWE
Reply With Quote
Reply

Thread Tools

Posting Rules
You may not post new threads
You may not post replies
You may not post attachments
You may not edit your posts

BB code is On
Smilies are On
[IMG] code is On
HTML code is Off

Forum Jump

All times are GMT +7. The time now is 17:57.