Fshare - My Blu-ray collection - vozForums
vozForums
Go Back   vozForums > Sản phẩm công nghệ > Multimedia > HDmedia
Reply
 
Thread Tools
  #1  
Old 07-04-2018, 23:21
Tituti's Avatar
Tituti Tituti is online now
Senior Member
 
Join Date: 02-2018
Posts: 2,421
Fshare - My Blu-ray collection

Dạo này rảnh rỗi chả có gì làm nên ngồi mux lại mấy cái Bluray gốc

7 Guardians of the Tomb 2018
24 Hours to Live 2017
The Brink 2017
The Invisible Guest 2016
Legend of the Naga Pearls 2017
The Thousand Faces of Dunjia 2017
Accident Man 2018
Chasing the Dragon 2017
A Better Tomorrow 2018
Swordfish 2001
God of Gamblers 1989
God of Gamblers II 1991
God of Gamblers III Back to Shanghai 1991
Flash Point 2007
Saat po long 2005
Interstellar 2014
The Fugitive 1993
Lan Kwaii Fong 2011
Inception 2010
Air Force One 1997
Ben Hur 1959
Con Air 1997
Three Kings 1999
Deep Impact 1998​
Avatar 2009
Beauty and the Beast 2017
Beyond Skyline 2017
Bullet Head 2017
Cinderella 2015
Geostorm 2017
Speed 1994
Commando 1985
Crime Story 1993
Doomsday 2008
Jack Reacher 2012
John Wick 2014
John Wick Chapter 2 2017
Lethal Weapon 1987
Lethal Weapon 1989
Survivor 2015
The American 2010
Wanted 2008
Sky Hunter 2017
Connected 2008
Justice My Foot 1992
Edge of Tomorrow 2014
Swordsman II 1992
The Grandmaster 2013
Swordsman III The East Is Red 1993
Act of Valor 2012
Death Race 2 2010
Death Race 3 Inferno 2012
Kill Bill Vol 1 2003
Legend of the Demon Cat 2017
Red Sparrow 2018
Game Night 2018
Pacific Rim Uprising 2018
The Godfather 1972
The Godfather Part II 1974
The Godfather Part III 1990

Last edited by Tituti; 29-07-2018 at 14:56.
Reply With Quote
  #2  
Old 07-04-2018, 23:28
Tituti's Avatar
Tituti Tituti is online now
Senior Member
 
Join Date: 02-2018
Posts: 2,421
Re: Fshare - My Blu-ray collection

7 Guardians of the Tomb 2018












Media info

Complete name : 7 Guardians of the Tomb 2018 1080p Blu-ray AVC DTS-HD MA 5.1.m2ts
Format : BDAV
Format/Info : Blu-ray Video
File size : 26.4 GiB
Duration : 1 h 37 min
Overall bit rate mode : Variable
Overall bit rate : 38.9 Mb/s
Maximum Overall bit rate : 35.5 Mb/s

Video

Format : AVC
Format/Info : Advanced Video Codec
Format profile : High@L4.1
Format settings : CABAC / 4 Ref Frames
Format settings, CABAC : Yes
Format settings, ReFrames : 4 frames
Duration : 1 h 37 min
Bit rate mode : Variable
Maximum bit rate : 36.0 Mb/s
Width : 1 920 pixels
Height : 1 080 pixels
Display aspect ratio : 16:9
Frame rate : 23.976 (24000/1001) FPS
Color space : YUV
Chroma subsampling : 4:2:0
Bit depth : 8 bits
Scan type : Progressive

Audio

Format : DTS
Format/Info : Digital Theater Systems
Format profile : MA / Core
Muxing mode : Stream extension
Duration : 1 h 37 min
Bit rate mode : Variable / Constant
Bit rate :1 509 kb/s
Channel(s) : 6 channels
Channel positions : Front: L C R, Side: L R, LFE
Sampling rate : 48.0 kHz
Frame rate : 93.750 FPS (512 SPF)
Bit depth : 24 bits
Compression mode : Lossless / Lossy
Language : English


Nội dung

Một nhóm những nhà khảo cổ học tình cờ phát hiện ra lăng mộ bí mật, trong đó chứa xác ướp của Hoàng Đế Trung Hoa có tuổi đời từ 200 năm trước Công Nguyên. Họ đã quật dậy một bí mật kinh hoàng mà đáng lý ra nên chôn vùi vĩnh viễn...


Download

http://www.fshare.vn/file/1NXFZJDXCNZR

Phụ đề

http://www.fshare.vn/file/K27M815CYMXI
Reply With Quote
  #3  
Old 07-04-2018, 23:31
Tituti's Avatar
Tituti Tituti is online now
Senior Member
 
Join Date: 02-2018
Posts: 2,421
Re: Fshare - My Blu-ray collection

24 Hours to Live 2017













Media info

Complete name : 24 Hours to Live 2017 1080p Bluray AVC DTS-HD MA 5.1.m2ts
Format/Info : Blu-ray Video
File size : 17.7 GiB
Duration : 1 h 33 min
Overall bit rate mode : Variable
Overall bit rate : 27.1 Mb/s
Maximum Overall bit rate : 35.5 Mb/s

Video

Format : AVC
Format/Info : Advanced Video Codec
Format profile : High@L4.1
Format settings : CABAC / 4 Ref Frames
Format settings, CABAC : Yes
Format settings, ReFrames : 4 frames
Duration : 1 h 33 min
Bit rate mode : Variable
Maximum bit rate : 36.0 Mb/s
Width : 1 920 pixels
Height : 1 080 pixels
Display aspect ratio : 16:9
Frame rate : 23.976 (24000/1001) FPS
Color space : YUV
Chroma subsampling : 4:2:0
Bit depth : 8 bits
Scan type : Progressive

Audio

Format : DTS
Format/Info : Digital Theater Systems
Format profile : MA / Core
Muxing mode : Stream extension
Duration : 1 h 33 min
Bit rate mode : Variable / Constant
Bit rate : 1 509 kb/s
Channel(s) : 6 channels
Channel positions : Front: L C R, Side: L R, LFE
Sampling rate : 48.0 kHz
Frame rate : 93.750 FPS (512 SPF)
Bit depth : 24 bits
Compression mode : Lossless / Lossy
Language : English


Nội dung

Sau một cuộc phẫu thuật thử nghiệm, sát thủ Travis Conrad được hồi sinh từ cõi chết và có đúng 24 giờ để sống lại. Anh quyết định hợp tác với chính nữ đặc vụ đã giết chết mình nhằm trả thù tổ chức tội phạm đã sát hại vợ và con của anh. Đây cũng chính là cơ hội để Travis chuộc lại những lỗi lầm trong quá khứ. Chỉ có 24 giờ để báo thù, liệu Travis có hoàn thành được nhiệm vụ khi từng giây trôi qua, tử thần lại càng đến gần hơn?


Download

http://www.fshare.vn/file/2W6QZJCTTFEE


Phụ đề

http://www.fshare.vn/file/FIZ7PRC7OIBR
Reply With Quote
  #4  
Old 07-04-2018, 23:34
Tituti's Avatar
Tituti Tituti is online now
Senior Member
 
Join Date: 02-2018
Posts: 2,421
Re: Fshare - My Blu-ray collection

The Brink 2017













Media info

Complete name : The Brink 2017 Blu-ray 1080p AVC Dolby TrueHD 7.1.m2ts
Format : BDAV
Format/Info : Blu-ray Video
File size : 24.4 GiB
Duration : 1 h 39 min
Overall bit rate mode : Variable
Overall bit rate : 35.2 Mb/s
Maximum Overall bit rate : 35.5 Mb/s

Video

Format : AVC
Format/Info : Advanced Video Codec
Format profile : High@L4.1
Format settings : CABAC / 4 Ref Frames
Format settings, CABAC : Yes
Format settings, ReFrames : 4 frames
Duration : 1 h 39 min
Bit rate mode : Variable
Bit rate : 33.1 Mb/s
Maximum bit rate : 29.0 Mb/s
Width : 1 920 pixels
Height : 1 080 pixels
Display aspect ratio : 16:9
Frame rate : 24.000 FPS
Color space : YUV
Chroma subsampling : 4:2:0
Bit depth : 8 bits
Scan type : Progressive
Bits/(Pixel*Frame) : 0.665
Stream size : 23.0 GiB (94%)

Audio

Format : TrueHD / AC-3
Muxing mode : Stream extension
Duration : 1 h 39 min
Bit rate mode : Variable / Constant
Bit rate : 640 kb/s
Maximum bit rate : 7 608 kb/s
Channel(s) : 8 channels / 6 channels
Channel positions : Front: L C R, Side: L R, Back: L R, LFE / Front: L C R, Side: L R, LFE
Sampling rate : 96.0 kHz / 48.0 kHz
Frame rate : 31.250 FPS (1536 SPF)
Bit depth : 16 bits
Stream size : 454 MiB (2%)
Language : Chinese


Nội dung

Phim kể về câu chuyện huynh đệ tương tàn, cảnh sát và bọn cướp trong sự cám dỗ của tiền bạc.


Download

http://www.fshare.vn/file/VVHITCV71B6O


Phụ đề

http://www.fshare.vn/file/NIE6E8M7S8DY
Reply With Quote
  #5  
Old 07-04-2018, 23:51
Tituti's Avatar
Tituti Tituti is online now
Senior Member
 
Join Date: 02-2018
Posts: 2,421
Re: Fshare - My Blu-ray collection

The Invisible Guest 2016









Media info

Complete name : The Invisible Guest 2016 1080p Blu-ray AVC TrueHD 5.1.m2ts
Format : BDAV
Format/Info : Blu-ray Video
File size : 16.4 GiB
Duration : 1 h 46 min
Overall bit rate mode : Variable
Overall bit rate : 22.0 Mb/s
Maximum Overall bit rate : 35.5 Mb/s

Video

Format : AVC
Format/Info : Advanced Video Codec
Format profile : High@L4.1
Format settings : CABAC / 4 Ref Frames
Format settings, CABAC : Yes
Format settings, ReFrames : 4 frames
Duration : 1 h 46 min
Bit rate mode : Constant
Bit rate : 20.5 Mb/s
Nominal bit rate : 35.0 Mb/s
Width : 1 920 pixels
Height : 1 080 pixels
Display aspect ratio : 16:9
Frame rate : 23.976 (24000/1001) FPS
Standard : NTSC
Color space : YUV
Chroma subsampling : 4:2:0
Bit depth : 8 bits
Scan type : Progressive
Bits/(Pixel*Frame) : 0.412
Stream size : 15.2 GiB (93%)
Color range : Limited
Color primaries : BT.709
Transfer characteristics : BT.709
Matrix coefficients : BT.709

Audio

Format : TrueHD / AC-3
Muxing mode : Stream extension
Duration : 1 h 46 min
Bit rate mode : Variable / Constant
Bit rate : 640 kb/s
Maximum bit rate : 4 851 kb/s
Channel(s) : 6 channels
Channel positions : Front: L C R, Side: L R, LFE
Sampling rate : 48.0 kHz
Frame rate : 31.250 FPS (1536 SPF)
Bit depth : 16 bits
Stream size : 487 MiB (3%)
Language : Spanish


Nội dung

Sát Thủ Vô Hình (The Invisible Guest / Contratiempo) là bộ phim ấn tượng của Tây Ban Nha trong năm 2017 gây tiếng vang lớn trên thế giới với hàng loạt những bất ngờ của bất ngờ, làm người xem không dự đoán được cái kết - bắt họ phải ngồi tới cùng để biết hung thủ thật sự.

Bộ phim kể về Adrián Doria - một doanh nhân trẻ tài năng, bị vướng vào một vụ án giết người trong phòng kín. Để cứu vãn sự nghiệp và cuộc sống cá nhân đang trên đà đổ nát, Doria phải thuê Virginia Goodman, một luật sư uy tín để bào chữa cho mình. Tuy nhiên, sau 180 phút lật lại quá khứ trong căn phòng ngột ngạt, một sự thật ghê rợn khác dần được phơi bày.


Download

http://www.fshare.vn/file/PZKM3C7NDNXG


Phụ đề

http://www.fshare.vn/file/GX1455ZBA6R4
Reply With Quote
  #6  
Old 07-04-2018, 23:57
Tituti's Avatar
Tituti Tituti is online now
Senior Member
 
Join Date: 02-2018
Posts: 2,421
Re: Fshare - My Blu-ray collection

Legend of the Naga Pearls 2017











Media info

Complete name : Legend of the Naga Pearls 2017 1080p Blu-ray AVC DTS-HD MA 5.1.m2ts
Format : BDAV
Format/Info : Blu-ray Video
File size : 20.1 GiB
Duration : 1 h 47 min
Overall bit rate mode : Variable
Overall bit rate : 26.7 Mb/s
Maximum Overall bit rate : 35.5 Mb/s

Video

Format : AVC
Format/Info : Advanced Video Codec
Format profile : High@L4.1
Format settings : CABAC / 4 Ref Frames
Format settings, CABAC : Yes
Format settings, ReFrames : 4 frames
Duration : 1 h 47 min
Bit rate mode : Variable
Maximum bit rate : 30.0 Mb/s
Width : 1 920 pixels
Height : 1 080 pixels
Display aspect ratio : 16:9
Frame rate : 24.000 FPS
Color space : YUV
Chroma subsampling : 4:2:0
Bit depth : 8 bits
Scan type : Progressive

Audio

Format : DTS
Format/Info : Digital Theater Systems
Format profile : MA / Core
Muxing mode : Stream extension
Duration : 1 h 47 min
Bit rate mode : Variable / Constant
Bit rate : 1 509 kb/s
Channel(s) : 6 channels
Channel positions : Front: L C R, Side: L R, LFE
Sampling rate : 48.0 kHz
Frame rate : 93.750 FPS (512 SPF)
Bit depth : 16 bits
Compression mode : Lossless / Lossy
Delay relative to video : 2 s 208 ms
Language : Chinese


Nội dung

The Legend of Naga Pearls kể về một tên ăn trộm thông minh (Vương Đại Lục), một bộ khoái tận tụy với công việc (Trương Thiên Ái) cùng một hoàng tử ngốc nghếch (Thịnh Quán Sâm) tình cờ ba người họ gặp nhau tại Cửu Châu. Ba người, mỗi người một mục đích, không ai tín nhiệm ai, nhưng lại không thể không cùng đồng hành trong một hành trình kỳ lạ. Dần dà, trên quãng đường đồng hành, cả ba người đều tìm được tình yêu, tình bạn, cuối cùng ngăn cản thành công một âm mưu hủy diệt thế giới.


Download

http://www.fshare.vn/file/V886XYN5GNKL


Phụ đề

https://subscene.com/subtitles/legen...he-naga-pearls
Reply With Quote
  #7  
Old 09-04-2018, 01:31
Tituti's Avatar
Tituti Tituti is online now
Senior Member
 
Join Date: 02-2018
Posts: 2,421
Re: Fshare - My Blu-ray collection

The Thousand Faces of Dunjia 2017
















Media info

Complete name : The Thousand Faces of Dunjia 2017 1080p Blu-ray DTS-X 7.1.m2ts
Format : BDAV
Format/Info : Blu-ray Video
File size : 31.7 GiB
Duration : 1 h 52 min
Overall bit rate mode : Variable
Overall bit rate : 40.2 Mb/s
Maximum Overall bit rate : 35.5 Mb/s

Video

Format : AVC
Format/Info : Advanced Video Codec
Format profile : High@L4.1
Format settings : CABAC / 4 Ref Frames
Format settings, CABAC : Yes
Format settings, ReFrames : 4 frames
Duration : 1 h 52 min
Bit rate mode : Variable
Maximum bit rate : 34.0 Mb/s
Width : 1 920 pixels
Height : 1 080 pixels
Display aspect ratio : 16:9
Frame rate : 24.000 FPS
Color space : YUV
Chroma subsampling : 4:2:0
Bit depth : 8 bits
Scan type : Progressive

Audio

Format : DTS
Format/Info : Digital Theater Systems
Format profile : X / MA / Core
Muxing mode : Stream extension
Duration : 1 h 52 min
Bit rate mode : Variable / Variable / Constant
Bit rate : 1 509 kb/s
Channel(s) : Object Based / 8 channels / 6 channels
Channel positions : Object Based / Front: L C R, Side: L R, Back: L R, LFE / Front: L C R, Side: L R, LFE
Sampling rate : / 48.0 kHz / 48.0 kHz
Frame rate : 93.750 FPS (512 SPF)
Bit depth : / 24 bits / 24 bits
Compression mode : / Lossless / Lossy
Language : Chinese


Nội dung

Thế giới đang trên bờ vực thảm họa trong thời đại hỗn độn, nơi ma quỷ đi lang thang khắp nơi. Để có thể ngăn chặn được cái ác và đảm bảo được sự bình yên cho thế giới này, một nhóm bí ẩn tên là Ngũ Hiệp Trừ Yêu ra đời. Mỗi thành viên của hội Ngũ Hiệp Trừ Yêu đều sở hữu một siêu năng lực đặc biệt, và họ ẩn mình trong thế giới của chúng ta với những bộ dạng hoá trang khác nhau.


Download

http://www.fshare.vn/file/SUNDKKT5X1ZP


Phụ đề

https://subscene.com/subtitles/the-t...aces-of-dunjia
Reply With Quote
  #8  
Old 09-04-2018, 01:35
Tituti's Avatar
Tituti Tituti is online now
Senior Member
 
Join Date: 02-2018
Posts: 2,421
Re: Fshare - My Blu-ray collection

Accident Man 2018




















Media info

Complete name : Accident Man 2018 1080p Blu-ray AVC DTS-HD MA 5.1.m2ts
Format : BDAV
Format/Info : Blu-ray Video
File size : 24.6 GiB
Duration : 1 h 45 min
Overall bit rate mode : Variable
Overall bit rate : 33.4 Mb/s
Maximum Overall bit rate : 35.5 Mb/s

Video

Format : AVC
Format/Info : Advanced Video Codec
Format profile : High@L4.1
Format settings : CABAC / 2 Ref Frames
Format settings, CABAC : Yes
Format settings, ReFrames : 2 frames
Duration : 1 h 45 min
Bit rate mode : Variable
Width : 1 920 pixels
Height : 1 080 pixels
Display aspect ratio : 16:9
Frame rate : 23.976 (24000/1001) FPS
Color space : YUV
Chroma subsampling : 4:2:0
Bit depth : 8 bits
Scan type : Progressive

Audio

Format : DTS
Format/Info : Digital Theater Systems
Format profile : MA / Core
Muxing mode : Stream extension
Duration : 1 h 45 min
Bit rate mode : Variable / Constant
Bit rate : 1 509 kb/s
Channel(s) : 6 channels
Channel positions : Front: L C R, Side: L R, LFE
Sampling rate : 48.0 kHz
Frame rate : 93.750 FPS (512 SPF)
Bit depth : 24 bits
Compression mode : Lossless / Lossy
Language : English


Nội dung

Mike Fallon là một sát thủ chuyên nghiệp máu lạnh. Hắn luôn làm khách hàng của mình hài lòng và rất giỏi đánh lạc hướng điều tra của cảnh sát. Hắn là tay sát thủ số một trong số những kẻ chuyên ám sát thuê. Tuy nhiên khi người thân của hắn bị lôi vào cuộc thì mọi chuyện đã đi theo một hướng khác...

Download

https://www.fshare.vn/file/U2I5WVBQHWSY


Phụ đề

https://subscene.com/subtitles/accident-man
Reply With Quote
  #9  
Old 09-04-2018, 01:40
Tituti's Avatar
Tituti Tituti is online now
Senior Member
 
Join Date: 02-2018
Posts: 2,421
Re: Fshare - My Blu-ray collection

Chasing the Dragon 2017




















Media info

Complete name : Chasing the Dragon 2017 1080p Blu-ray DTS-HD MA 5.1.m2ts
Format : BDAV
Format/Info : Blu-ray Video
File size : 32.0 GiB
Duration : 2 h 8 min
Overall bit rate mode : Variable
Overall bit rate : 35.6 Mb/s
Maximum Overall bit rate : 35.5 Mb/s

Video

Format : AVC
Format/Info : Advanced Video Codec
Format profile : High@L4.1
Format settings : CABAC / 4 Ref Frames
Format settings, CABAC : Yes
Format settings, ReFrames : 4 frames
Duration : 2 h 8 min
Bit rate mode : Variable
Maximum bit rate : 33.0 Mb/s
Width : 1 920 pixels
Height : 1 080 pixels
Display aspect ratio : 16:9
Frame rate : 24.000 FPS
Color space : YUV
Chroma subsampling : 4:2:0
Bit depth : 8 bits
Scan type : Progressive

Audio

Format : DTS
Format/Info : Digital Theater Systems
Format profile : MA / Core
Muxing mode : Stream extension
Duration : 2 h 8 min
Bit rate mode : Variable / Constant
Bit rate : 1 509 kb/s
Channel(s) : 6 channels
Channel positions : Front: L C R, Side: L R, LFE
Sampling rate : 48.0 kHz
Frame rate : 93.750 FPS (512 SPF)
Bit depth : 16 bits
Compression mode : Lossless / Lossy
Delay relative to video : 2 s 0 ms
Language : Chinese


Nội dung

Hào Thọt (Chân Tử Đan) - một kẻ nhập cư lậu vào Hồng Kông năm 1963 trải qua nhiều biến cố đã trở thành một tên trùm ma túy đầy quyền lực và cực kỳ tàn nhẫn. Ghê gớm hơn, với sự trợ giúp của gã cảnh sát biến chất Lôi Lạc (Lưu Đức Hoa), Hào Thọt vươn lên thành vua của các ông trùm ma túy Hồng Kông lúc bấy giờ.


Download

http://www.fshare.vn/file/ZFWYWAFZI9F4


Phụ đề

https://www.fshare.vn/file/8QP6E9QNRKDV
Reply With Quote
  #10  
Old 09-04-2018, 01:43
Tituti's Avatar
Tituti Tituti is online now
Senior Member
 
Join Date: 02-2018
Posts: 2,421
Re: Fshare - My Blu-ray collection

A Better Tomorrow 2018














Media Info

Complete name : A Better Tomorrow 2018 1080p Blu-ray AVC TrueHD 5.1.m2ts
Format : BDAV
Format/Info : Blu-ray Video
File size : 21.1 GiB
Duration : 1 h 53 min
Overall bit rate mode : Variable
Overall bit rate : 26.5 Mb/s
Maximum Overall bit rate : 35.5 Mb/s

Video

Format : AVC
Format/Info : Advanced Video Codec
Format profile : High@L4.1
Format settings : CABAC / 4 Ref Frames
Format settings, CABAC : Yes
Format settings, RefFrames : 4 frames
Duration : 1 h 53 min
Bit rate mode : Variable
Bit rate : 25.0 Mb/s
Width : 1 920 pixels
Height : 1 080 pixels
Display aspect ratio : 16:9
Frame rate : 24.000 FPS
Color space : YUV
Chroma subsampling : 4:2:0
Bit depth : 8 bits
Scan type : Progressive
Bits/(Pixel*Frame) : 0.502
Stream size : 19.7 GiB (94%)

Audio

Format : TrueHD / AC-3
Muxing mode : Stream extension
Duration : 1 h 53 min
Bit rate mode : Variable / Constant
Bit rate : 640 kb/s
Maximum bit rate : 4 344 kb/s
Channel(s) : 6 channels
Channel positions : Front: L C R, Side: L R, LFE
Sampling rate : 96.0 kHz / 48.0 kHz
Frame rate : 31.250 FPS (1536 SPF)
Bit depth : 16 bits
Delay relative to video : 2 s 0 ms
Stream size : 521 MiB (2%)
Language : Chinese


Nội dung

Châu Khải, một thanh niên cương trực khẳng khái mồ côi mẹ từ sớm, vì không thể chịu đựng ông bố nóng nảy thô bạo mà trốn đi biển làm thủy thủ trên tàu thuyền buôn bán với Nhật Bản. Sau này, Châu Khải gia nhập đường dây buôn lậu trên biển và kết thân với Mã Kha một người anh em trong đội thủy thủ. Hai huynh đệ họ tuy làm việc trong băng nhóm tội phạm, nhưng vẫn giữ nguyên tắc sống đường hoàng, không làm chuyện bừa bãi. Thế rồi Châu Khải đột nhiên bị đồng bọn trong đường dây hãm hại đến bước bị bắt phải ngồi tù.

Em trai của Châu Khải là Châu Siêu từ nhỏ đã coi anh trai mình như thần tượng, hoàn toàn không biết những hoạt động phạm pháp của anh mình. Châu Siêu vừa tốt nghiệp và được gia nhập đội cảnh sát, đương lúc khí thế hừng hực, hăng hái vào nghề thì anh lại tận mắt chứng kiến anh trai của mình phạm pháp bị bắt giam và còn liên lụy khiến bố bị sát hại. Từ đó trở đi, Châu Siêu luôn mong trong lòng nỗi căm hặn với Châu Khải.


Download

http://www.fshare.vn/file/885Q2SJ3I3J8


Phụ đề

https://subscene.com/subtitles/ying-...-tomorrow-2018
Reply With Quote
Reply

Thread Tools

Posting Rules
You may not post new threads
You may not post replies
You may not post attachments
You may not edit your posts

BB code is On
Smilies are On
[IMG] code is On
HTML code is Off

Forum Jump

All times are GMT +7. The time now is 16:21.
Steam Powered by vBulletin® 0.1 pre-alpha
Copyright ©2000 - 2019, Jelsoft Enterprises Ltd.