[Hành động - Phiêu lưu][M2TS] The Divergent Trilogy - vozForums
vozForums
Go Back   vozForums > Sản phẩm công nghệ > Multimedia > HDmedia
Reply
 
Thread Tools
  #1  
Old 01-01-2019, 23:51
Suachua's Avatar
Suachua Suachua is offline
Senior Member
 
Join Date: 07-2006
Location: Hà Nội
Posts: 3,248
[Hành động - Phiêu lưu][M2TS] The Divergent Trilogy



Media info

Complete name : Divergent 2014 1080p Blu-ray AVC DTS-HD MA 7.1.m2ts
Format : BDAV
Format/Info : Blu-ray Video
File size : 30.8 GiB
Duration : 2 h 19 min
Overall bit rate mode : Variable
Overall bit rate : 31.6 Mb/s
Maximum Overall bit rate : 35.5 Mb/s

Video

Format : AVC
Format/Info : Advanced Video Codec
Format profile : High@L4.1
Format settings : CABAC / 4 Ref Frames
Format settings, CABAC : Yes
Format settings, RefFrames : 4 frames
Duration : 2 h 19 min
Bit rate mode : Variable
Maximum bit rate : 37.0 Mb/s
Width : 1 920 pixels
Height : 1 080 pixels
Display aspect ratio : 16:9
Frame rate : 23.976 (24000/1001) FPS
Color space : YUV
Chroma subsampling : 4:2:0
Bit depth : 8 bits
Scan type : Progressive

Audio

Format : DTS XLL
Format/Info : Digital Theater Systems
Commercial name : DTS-HD Master Audio
Muxing mode : Stream extension
Duration : 2 h 19 min
Bit rate mode : Variable
Channel(s) : 8 channels
Channel layout : C L R LFE Lb Rb Lss Rss
Sampling rate : 48.0 kHz
Frame rate : 93.750 FPS (512 SPF)
Bit depth : 24 bits
Compression mode : Lossless
Language : English

Text #1

Format : PGS
Language : English

Text #2

Format : PGS
Language : Vietnamese

Text #3

Format : PGS
Language : Vietnamese


Nội dung

Divergent lấy bối cảnh là một tương lai đen tối, khi xã hội bị phân chia thành 2 phe đối lập nhau, phụ thuộc vào phẩm chất của từng người trong xã hội đó: trung thực, thông minh hoặc dũng cảm... Cô gái Tris Prior phát hiện rằng mình là một sự khác biệt trong xã hội đó, khi mang trong mình rất nhiều đặc điểm, tính cách khác nhau.


Download

https://www.fshare.vn/file/21RIVPKF8LXQ


Phụ đề

http://phudeviet.org/subtitle/Divergent/4172.html
Reply With Quote
  #2  
Old 01-01-2019, 23:53
Suachua's Avatar
Suachua Suachua is offline
Senior Member
 
Join Date: 07-2006
Location: Hà Nội
Posts: 3,248
Re: [Hành động - Phiêu lưu][M2TS] The Divergent Trilogy



Media info

Complete name : Insurgent 2015 1080p Blu-ray AVC Atmos 7.1.m2ts
Format : BDAV
Format/Info : Blu-ray Video
File size : 21.1 GiB
Duration : 1 h 58 min
Overall bit rate mode : Variable
Overall bit rate : 25.4 Mb/s
Maximum Overall bit rate : 48.0 Mb/s

Video

Format : AVC
Format/Info : Advanced Video Codec
Format profile : High@L4.1
Format settings : CABAC / 4 Ref Frames
Format settings, CABAC : Yes
Format settings, RefFrames : 4 frames
Format settings, GOP : M=3, N=12
Duration : 1 h 58 min
Bit rate mode : Variable
Bit rate : 23.8 Mb/s
Maximum bit rate : 36.5 Mb/s
Width : 1 920 pixels
Height : 1 080 pixels
Display aspect ratio : 16:9
Frame rate : 23.976 (24000/1001) FPS
Color space : YUV
Chroma subsampling : 4:2:0
Bit depth : 8 bits
Scan type : Progressive
Bits/(Pixel*Frame) : 0.478
Stream size : 19.8 GiB (93%)

Audio

Format : AC-3 MLP FBA 16-ch
Format/Info : Audio Coding 3 + Meridian Lossless Packing FBA with 16-channel presentation
Commercial name : Dolby TrueHD with Dolby Atmos
Muxing mode : Stream extension
Duration : 1 h 58 min
Bit rate mode : Variable
Bit rate : 640 kb/s
Maximum bit rate : 7 116 kb/s
Channel(s) : 8 channels
Channel layout : L R C LFE Ls Rs Lb Rb
Sampling rate : 48.0 kHz
Frame rate : 31.250 FPS (1536 SPF)
Bit depth : 16 bits
Compression mode : Lossy
Stream size : 545 MiB (3%)
Language : English
Service kind : Complete Main
Number of dynamic objects : 11
Bed channel count : 1 channel
Bed channel configuration : LFE

Text

Format : PGS
Language : English


Nội dung

Kết thúc của phần trước, nhân vật chính Beatrice Prior hay còn gọi là Tris đã xông vào phòng thí nghiệm thuộc phân khu Erudite và giải cứu được Four. Đồng thời cô cũng ngăn chặn được kế hoạch của Jeanine sử dụng công nghệ huyết thanh để khống chế những chiến binh thuộc phân khu Dauntless thành tay sai cho kế hoạch kiểm soát tất cả các phân khu còn lại.

Nhưng mối đe dọa ngấm ngầm trong một hệ thống xã hội đã bắt đầu xuất hiện nhiều bất ổn vẫn luôn tồn tại, và để đủ sức mạnh đương đâu với nó, Tris phải tiếp tục chinh phục được nỗi sợ hãi của bản thân trong chính những giấc mơ của mình. Tris mang những phẩm chất của cả 2 phân khu là Dauntless (Dũng cảm) và Abnegation (Vị Tha - Vô Ngã) như Tris, điều đó đồng nghĩa với việc cô phải đối diện với sự mất mát của những người thân yêu nhất.


Download

https://www.fshare.vn/file/2EI3OUXWIGK6


Phụ đề

https://subscene.com/subtitles/the-d...ries-insurgent
Reply With Quote
  #3  
Old 01-01-2019, 23:54
Suachua's Avatar
Suachua Suachua is offline
Senior Member
 
Join Date: 07-2006
Location: Hà Nội
Posts: 3,248
Re: [Hành động - Phiêu lưu][M2TS] The Divergent Trilogy



Media info

Complete name : Allegiant 2016 1080p Blu-ray AVC Atmos 7.1.m2ts
Format : BDAV
Format/Info : Blu-ray Video
File size : 35.9 GiB
Duration : 2 h 0 min
Overall bit rate mode : Variable
Overall bit rate : 42.6 Mb/s
Maximum Overall bit rate : 35.5 Mb/s

Video

Format : AVC
Format/Info : Advanced Video Codec
Format profile : High@L4.1
Format settings : CABAC / 4 Ref Frames
Format settings, CABAC : Yes
Format settings, RefFrames : 4 frames
Duration : 2 h 0 min
Bit rate mode : Variable
Bit rate : 40.3 Mb/s
Maximum bit rate : 36.5 Mb/s
Width : 1 920 pixels
Height : 1 080 pixels
Display aspect ratio : 16:9
Frame rate : 23.976 (24000/1001) FPS
Color space : YUV
Chroma subsampling : 4:2:0
Bit depth : 8 bits
Scan type : Progressive
Bits/(Pixel*Frame) : 0.810
Stream size : 33.9 GiB (95%)

Audio

Format : AC-3 MLP FBA 16-ch
Format/Info : Audio Coding 3 + Meridian Lossless Packing FBA with 16-channel presentation
Commercial name : Dolby TrueHD with Dolby Atmos
Muxing mode : Stream extension
Duration : 2 h 0 min
Bit rate mode : Variable
Bit rate : 640 kb/s
Maximum bit rate : 6 219 kb/s
Channel(s) : 8 channels
Channel layout : L R C LFE Ls Rs Lb Rb
Sampling rate : 48.0 kHz
Frame rate : 31.250 FPS (1536 SPF)
Bit depth : 16 bits
Compression mode : Lossy
Stream size : 552 MiB (2%)
Language : English
Service kind : Complete Main
Number of dynamic objects : 15
Bed channel count : 1 channel
Bed channel configuration : LFE

Text

Format : PGS
Language : English


Nội dung

Tris, Four và nhóm bạn quyết định vượt qua bức tường bao quanh Chicago sau khi biết được những âm mưu động trời của quân nổi loạn. Nhưng không ai trong số họ có thể tưởng tượng được nguy hiểm và cả sự thật khủng khiếp ở bên kia bức tường. Cả nhóm sốc khi nhìn thấy quang cảnh bên dưới là vùng đất hoang tàn, được nhuốm thẫm sắc đỏ. Trong hành trình này, Tris phải đối mặt với tổ chức bí ẩn mới có tên Bureau of Genetic Welfare.

Suốt 200 năm, các nhà khoa học ở "bên kia bức tường" đã thực hiện những thử nghiệm để chứng minh lý thuyết: Nếu có thể cứu con người từ môi trường nhiễm độc và đặt họ vào nơi an toàn như Chicago thì họ có thể chữa lành nơi đó. Tris phát hiện ra mình là vật thí nghiệm cho công trình nghiên cứu ấy. Một lần nữa, Tris, Four và các chiến binh khác phải chiến đấu bảo vệ gia đình, những người thân khỏi âm mưu của tổ chức bí ẩn kia.


Download

https://www.fshare.vn/file/6S9KSZDJBQFP


Phụ đề

http://phudeviet.org/subtitle/The-Di...iant/5781.html
Reply With Quote
  #4  
Old 01-01-2019, 23:55
Anjelica's Avatar
Anjelica Anjelica is offline
Senior Member
 
Join Date: 04-2016
Location: WowGirls
Posts: 231
Re: [Hành động - Phiêu lưu][M2TS] The Divergent Trilogy

phim này cũng hay
Reply With Quote
  #5  
Old 23-01-2019, 09:10
we-we's Avatar
we-we we-we is offline
Senior Member
 
Join Date: 06-2008
Location: ____+ Fast Ethernet F0/1 +____
Posts: 340
Re: [Hành động - Phiêu lưu][M2TS] The Divergent Trilogy

Phần cuối bị chuyển thành TV Series rồi
Reply With Quote
Reply

Thread Tools

Posting Rules
You may not post new threads
You may not post replies
You may not post attachments
You may not edit your posts

BB code is On
Smilies are On
[IMG] code is On
HTML code is Off

Forum Jump

All times are GMT +7. The time now is 15:25.