[Hành động - Cờ bạc][M2TS] God of Gamblers Series Complete - vozForums
vozForums
Go Back   vozForums > Sản phẩm công nghệ > Multimedia > HDmedia
Reply
 
Thread Tools
  #1  
Old 30-12-2018, 08:32
Suachua's Avatar
Suachua Suachua is offline
Senior Member
 
Join Date: 07-2006
Location: Hà Nội
Posts: 3,249
[Hành động - Cờ bạc][M2TS] God of Gamblers Series Complete


Media info

Complete name : God of Gamblers 1989 1080p Blu-ray AVC DTS-HD MA 5.1.m2ts
Format : BDAV
Format/Info : Blu-ray Video
File size : 20.7 GiB
Duration : 2 h 6 min
Overall bit rate mode : Variable
Overall bit rate : 23.4 Mb/s
Maximum Overall bit rate : 35.5 Mb/s

Video

Format : AVC
Format/Info : Advanced Video Codec
Format profile : High@L4.1
Format settings : CABAC / 4 Ref Frames
Format settings, CABAC : Yes
Format settings, ReFrames : 4 frames
Duration : 2 h 6 min
Bit rate mode : Variable
Maximum bit rate : 30.0 Mb/s
Width : 1 920 pixels
Height : 1 080 pixels
Display aspect ratio : 16:9
Frame rate : 24.000 FPS
Standard : NTSC
Color space : YUV
Chroma subsampling : 4:2:0
Bit depth : 8 bits
Scan type : Progressive
Color range : Limited
Color primaries : BT.709
Transfer characteristics : BT.709
Matrix coefficients : BT.709

Audio #1

Format : DTS
Format/Info : Digital Theater Systems
Format profile : MA / Core
Muxing mode : Stream extension
Duration : 2 h 6 min
Bit rate mode : Variable / Constant
Bit rate : 1 509 kb/s
Channel(s) : 6 channels
Channel positions : Front: L C R, Side: L R, LFE
Sampling rate : 48.0 kHz
Frame rate : 93.750 FPS (512 SPF)
Bit depth : 16 bits
Compression mode : Lossless / Lossy
Language : Chinese

Audio #2

Format : AC-3
Format/Info : Audio Coding 3
Duration : 2 h 6 min
Bit rate mode : Constant
Bit rate : 192 kb/s
Channel(s) : 2 channels
Channel positions : Front: L R
Sampling rate : 48.0 kHz
Frame rate : 31.250 FPS (1536 SPF)
Bit depth : 16 bits
Compression mode : Lossy
Stream size : 173 MiB (1%)
Language : Vietnamese

Text

Format : PGS
Language : Vietnamese


Nội dung

Cao Tiến (Châu Nhuận Phát) là một tay cờ bạc nổi tiếng Hồng Kông, được mệnh danh "Thần bài". Một hôm, trước ngày thi đấu với tay hảo thủ người Singapore, Tiến đi dạo thư giãn và bị ngã do vướng bẫy của Trần Đao Tử - một tay vô công rỗi nghề (Lưu Đức Hoa) giăng ra để tiến hành cướp của. Trong phim, Tiến bị ngã nặng ngất đi, Đao Tử sợ quá mang anh về nhà cứu chữa. Dưới sự săn sóc tận tình của Trân (Vương Tổ Hiền), Long Ngũ, Đao Tử, Tiến cũng khỏe lại, nhưng chấn thương vùng đầu khiến trí não của anh trở nên giống như một đứa trẻ.

Download

http://www.fshare.vn/file/WQNSQ3W3FMKN


Phụ đề

Đã mux sẵn trong phim
Reply With Quote
  #2  
Old 30-12-2018, 08:35
Suachua's Avatar
Suachua Suachua is offline
Senior Member
 
Join Date: 07-2006
Location: Hà Nội
Posts: 3,249
Re: [Hành động - Cờ bạc][M2TS] God of Gamblers Series Complete



Media info

Complete name : God of Gamblers II 1991 1080p Blu-ray AVC TrueHD 5.1.m2ts
Format : BDAV
Format/Info : Blu-ray Video
File size : 20.7 GiB
Duration : 1 h 44 min
Overall bit rate mode : Variable
Overall bit rate : 28.3 Mb/s
Maximum Overall bit rate : 35.5 Mb/s

Video

Format : AVC
Format/Info : Advanced Video Codec
Format profile : High@L4.1
Format settings : CABAC / 4 Ref Frames
Format settings, CABAC : Yes
Format settings, ReFrames : 4 frames
Duration : 1 h 44 min
Bit rate mode : Variable
Bit rate : 26.3 Mb/s
Maximum bit rate : 32.0 Mb/s
Width : 1 920 pixels
Height : 1 080 pixels
Display aspect ratio : 16:9
Frame rate : 24.000 FPS
Standard : NTSC
Color space : YUV
Chroma subsampling : 4:2:0
Bit depth : 8 bits
Scan type : Progressive
Bits/(Pixel*Frame) : 0.528
Stream size : 19.2 GiB (93%)
Color range : Limited
Color primaries : BT.709
Transfer characteristics : BT.709
Matrix coefficients : BT.709

Audio #1

Format : TrueHD / AC-3
Muxing mode : Stream extension
Duration : 1 h 44 min
Bit rate mode : Variable / Constant
Bit rate : 640 kb/s
Maximum bit rate : 3 528 kb/s
Channel(s) : 6 channels
Channel positions : Front: L C R, Side: L R, LFE
Sampling rate : 96.0 kHz / 48.0 kHz
Frame rate : 31.250 FPS (1536 SPF)
Bit depth : 16 bits
Stream size : 480 MiB (2%)
Language : Chinese

Audio #2

Format : AC-3
Format/Info : Audio Coding 3
Duration : 1 h 44 min
Bit rate mode : Constant
Bit rate : 192 kb/s
Channel(s) : 2 channels
Channel positions : Front: L R
Sampling rate : 44.1 kHz
Frame rate : 28.711 FPS (1536 SPF)
Bit depth : 16 bits
Compression mode : Lossy
Stream size : 144 MiB (1%)
Language : Vietnamese


Nội dung

Lần này, đệ tử của Vua Bài đã trở lại, cùng với Syephen, một người có khả năng đặc biệt làm mưa làm gió trên các sòng bạc lớn ở Hong Kong, nhưng liệu họ có thể tiếp tục như vậy không?


Download

http://www.fshare.vn/file/X82B6K4J3KCQ


Phụ đề

Không có phụ đề tiếng Việt thay vào đó đã mux thuyết minh tiếng Việt vào sẵn trong phim
Reply With Quote
  #3  
Old 30-12-2018, 08:37
Suachua's Avatar
Suachua Suachua is offline
Senior Member
 
Join Date: 07-2006
Location: Hà Nội
Posts: 3,249
Re: [Hành động - Cờ bạc][M2TS] God of Gamblers Series Complete



Media info

Complete name : God of Gamblers III Back to Shanghai 1991 1080p Blu-ray AVC TrueHD 5.1.m2ts
Format : BDAV
Format/Info : Blu-ray Video
File size : 20.5 GiB
Duration : 1 h 56 min
Overall bit rate mode : Variable
Overall bit rate : 25.2 Mb/s
Maximum Overall bit rate : 35.5 Mb/s

Video

Format : AVC
Format/Info : Advanced Video Codec
Format profile : High@L4.1
Format settings : CABAC / 4 Ref Frames
Format settings, CABAC : Yes
Format settings, ReFrames : 4 frames
Duration : 1 h 56 min
Bit rate mode : Variable
Bit rate : 23.4 Mb/s
Maximum bit rate : 30.0 Mb/s
Width : 1 920 pixels
Height : 1 080 pixels
Display aspect ratio : 16:9
Frame rate : 24.000 FPS
Standard : NTSC
Color space : YUV
Chroma subsampling : 4:2:0
Bit depth : 8 bits
Scan type : Progressive
Bits/(Pixel*Frame) : 0.470
Stream size : 19.0 GiB (93%)
Color range : Limited
Color primaries : BT.709
Transfer characteristics : BT.709
Matrix coefficients : BT.709

Audio #1

Format : TrueHD / AC-3
Muxing mode : Stream extension
Duration : 1 h 56 min
Bit rate mode : Variable / Constant
Bit rate : 640 kb/s
Maximum bit rate : 3 696 kb/s
Channel(s) : 6 channels
Channel positions : Front: L C R, Side: L R, LFE
Sampling rate : 96.0 kHz / 48.0 kHz
Frame rate : 31.250 FPS (1536 SPF)
Bit depth : 16 bits
Stream size : 533 MiB (3%)
Language : Chinese

Audio #2

Format : AC-3
Format/Info : Audio Coding 3
Duration : 1 h 56 min
Bit rate mode : Constant
Bit rate : 192 kb/s
Channel(s) : 2 channels
Channel positions : Front: L R
Sampling rate : 44.1 kHz
Frame rate : 28.711 FPS (1536 SPF)
Bit depth : 16 bits
Compression mode : Lossy
Stream size : 160 MiB (1%)
Language : Vietnamese


Nội dung

Bị đánh bại bởi A Tinh, một kẻ kiêu ngạo như Đại Quân rất tức giận và tìm cách phục thù. Hắn trở về đại lục triệu tập các sư huynh đệ cũng có công năng đặc dị để đối phó A Tinh. Cuộc chạm trán nảy nửa giữa các đại cao thủ khiến lỗ hổng thời gian xuất hiện, cuốn cả A Tinh và Đại Quân về Thượng hải những năm đầu thế kỷ 20.


Download

http://www.fshare.vn/file/6XYO9ZXG4YA7


Phụ đề

Không có phụ đề tiếng Việt thay vào đó đã mux thuyết minh tiếng Việt vào sẵn trong phim
Reply With Quote
Reply

Thread Tools

Posting Rules
You may not post new threads
You may not post replies
You may not post attachments
You may not edit your posts

BB code is On
Smilies are On
[IMG] code is On
HTML code is Off

Forum Jump

All times are GMT +7. The time now is 09:09.
Chịu trách nhiệm nội dung: Bạch Thành Trung © 2019 Công ty TNHH Thật Vi Diệu
ĐC tầng 4, số 6-8 Đường D2, Bình Thạnh, Hồ Chí Minh, Việt Nam - SĐT 0981323799 - MST 0313906593
Giấy phép thiết lập MXH số 334/GP-BTTTT, Ký ngày: 19/08/2019