[Hành động - Viễn tưởng][M2TS] Terminator Series Complete - vozForums
vozForums
Go Back   vozForums > Sản phẩm công nghệ > Multimedia > HDmedia
Reply
 
Thread Tools
  #1  
Old 03-01-2019, 00:34
Suachua's Avatar
Suachua Suachua is offline
Senior Member
 
Join Date: 07-2006
Location: Hà Nội
Posts: 3,248
[Hành động - Viễn tưởng][M2TS] Terminator Series Complete



Media info

Complete name : The Terminator 1984 1080p Blu-ray AVC DTS-HD MA 5.1.m2ts
Format : BDAV
Format/Info : Blu-ray Video
File size : 28.2 GiB
Duration : 1 h 47 min
Overall bit rate mode : Variable
Overall bit rate : 37.7 Mb/s
Maximum Overall bit rate : 35.5 Mb/s

Video

Format : AVC
Format/Info : Advanced Video Codec
Format profile : High@L4.1
Format settings : CABAC / 4 Ref Frames
Format settings, CABAC : Yes
Format settings, RefFrames : 4 frames
Duration : 1 h 47 min
Bit rate mode : Variable
Maximum bit rate : 34.0 Mb/s
Width : 1 920 pixels
Height : 1 080 pixels
Display aspect ratio : 16:9
Frame rate : 23.976 (24000/1001) FPS
Color space : YUV
Chroma subsampling : 4:2:0
Bit depth : 8 bits
Scan type : Progressive

Audio

Format : DTS XLL
Format/Info : Digital Theater Systems
Commercial name : DTS-HD Master Audio
Muxing mode : Stream extension
Duration : 1 h 47 min
Bit rate mode : Variable
Channel(s) : 6 channels
Channel layout : C L R Ls Rs LFE
Sampling rate : 48.0 kHz
Frame rate : 93.750 FPS (512 SPF)
Bit depth : 24 bits
Compression mode : Lossless
Language : English


Nội dung

Năm 2029, những kẻ cai trị Trái Đất quyết định gửi về quá khứ một robot sát thủ mang tên The Terminator - Kẻ Hủy Diệt để thay đổi quá khứ. Nhiệm vụ của tên robot này là giết chết Sarah Connor, người có vai trò quyết định trong cuộc kháng chiến của nhân loại sau này...


Download

https://www.fshare.vn/file/8WKXN929T4UL


Phụ đề

http://phudeviet.org/film/The-Terminator/4109.html
Reply With Quote
  #2  
Old 03-01-2019, 00:36
Suachua's Avatar
Suachua Suachua is offline
Senior Member
 
Join Date: 07-2006
Location: Hà Nội
Posts: 3,248
Re: [Hành động - Viễn tưởng][M2TS] Terminator Series Complete



Media info

Complete name : Terminator 2 Judgment Day 1991 Theatrical Cut 1080p Blu-ray AVC DTS-HD MA 5.1.m2ts
Format : BDAV
Format/Info : Blu-ray Video
File size : 25.4 GiB
Duration : 2 h 17 min
Overall bit rate mode : Variable
Overall bit rate : 26.5 Mb/s
Maximum Overall bit rate : 48.0 Mb/s

Video

Format : AVC
Format/Info : Advanced Video Codec
Format profile : High@L4.1
Format settings : CABAC / 4 Ref Frames
Format settings, CABAC : Yes
Format settings, RefFrames : 4 frames
Duration : 2 h 17 min
Bit rate mode : Variable
Maximum bit rate : 31.0 Mb/s
Width : 1 920 pixels
Height : 1 080 pixels
Display aspect ratio : 16:9
Frame rate : 23.976 (24000/1001) FPS
Color space : YUV
Chroma subsampling : 4:2:0
Bit depth : 8 bits
Scan type : Progressive

Audio

Format : DTS XLL
Format/Info : Digital Theater Systems
Commercial name : DTS-HD Master Audio
Muxing mode : Stream extension
Duration : 2 h 17 min
Bit rate mode : Variable
Channel(s) : 6 channels
Channel layout : C L R Ls Rs LFE
Sampling rate : 48.0 kHz
Frame rate : 93.750 FPS (512 SPF)
Bit depth : 24 bits
Compression mode : Lossless
Language : English

Text

Format : PGS
Language : English


Nội dung

Sau thất bại ở phần 1, Skynet bằng gửi thêm một robot khác, mạnh mẽ hơn để tiêu diệt Sarah Connor và đứa con của bà, John Connor. Tuy nhiên, lần này hai mẹ con được bảo vệ bởi chính Kẻ Hủy Diệt trong phần 1, được phe kháng chiến sửa chữa và gửi về từ tương lai.


Download

Terminator 2 Judgment Day 1991 Theatrical Cut
https://www.fshare.vn/file/LIJYU3LJM6R2
Terminator 2 Judgment Day 1991 Director's Cut
https://www.fshare.vn/file/L819WIJWM7T9
Terminator 2 Judgment Day 1991 Extended Collector's Cut
https://www.fshare.vn/file/MROV4KBKL3B2


Phụ đề

http://phudeviet.org/film/Terminator...-Day/4110.html
https://subscene.com/subtitles/termi...2-judgment-day
https://www.opensubtitles.org/vi/sea...ie/idmovie-591
Reply With Quote
  #3  
Old 03-01-2019, 00:38
Suachua's Avatar
Suachua Suachua is offline
Senior Member
 
Join Date: 07-2006
Location: Hà Nội
Posts: 3,248
Re: [Hành động - Viễn tưởng][M2TS] Terminator Series Complete



Media info

Complete name : Terminator 3 Rise of the Machines 2003 1080p Blu-ray AVC TrueHD 5.1.m2ts
Format : BDAV
Format/Info : Blu-ray Video
File size : 24.1 GiB
Duration : 1 h 49 min
Overall bit rate mode : Variable
Overall bit rate : 31.6 Mb/s
Maximum Overall bit rate : 35.5 Mb/s

Video

Format : AVC
Format/Info : Advanced Video Codec
Format profile : High@L4.1
Format settings : CABAC / 4 Ref Frames
Format settings, CABAC : Yes
Format settings, ReFrames : 4 frames
Duration : 1 h 49 min
Bit rate mode : Variable
Bit rate : 29.7 Mb/s
Maximum bit rate : 28.5 Mb/s
Width : 1 920 pixels
Height : 1 080 pixels
Display aspect ratio : 16:9
Frame rate : 23.976 (24000/1001) FPS
Color space : YUV
Chroma subsampling : 4:2:0
Bit depth : 8 bits
Scan type : Progressive
Bits/(Pixel*Frame) : 0.598
Stream size : 22.7 GiB (94%)
Color range : Limited
Color primaries : BT.709
Transfer characteristics : BT.709
Matrix coefficients : BT.709

Audio

Format : TrueHD / AC-3
Muxing mode : Stream extension
Duration : 1 h 49 min
Bit rate mode : Variable / Constant
Bit rate : 640 kb/s
Maximum bit rate : 3 564 kb/s
Channel(s) : 6 channels
Channel positions : Front: L C R, Side: L R, LFE
Sampling rate : 48.0 kHz
Frame rate : 31.250 FPS (1536 SPF)
Bit depth : 16 bits
Stream size : 499 MiB (2%)
Language : English
Service kind : Complete Main

Text

Format : PGS
Language : English


Nội dung

Sau hai lần “giết hụt” John, Skynet lại đưa ra đại diện mới Terminatrix hay thường gọi là T-X nhằm tiêu diệt cả John lẫn vợ anh Kate Brewster người sẽ cùng anh lãnh đạo phong trào chống lại Skynet. Phe con người cũng bí mật gửi một Terminator CSM-101 có đôi chút cải thiện so với T-800 trở lại quá khứ bảo vệ hai người.

Sau vài lần đụng độ, John và Kate gặp nhau rồi phát hiện ra Skynet đang có kế hoạch tiếp cận hệ thống máy tính của quân đội Mỹ. Họ cố gắng cảnh báo cho mọi người, bao gồm cả cha Kate là một vị tướng của lực lượng quân đội Mỹ về nguy cơ Skynet chiếm lĩnh quyền kiểm soát toàn hệ thộng này. Nhưng T-X thì luôn săn lùng họ, còn Skynet thì âm mưu tiến hành cuộc chiến hạt nhân mở đầu cho cuộc chiến chống lại máy móc kinh hoàng, làm thế nào John và Kate cùng với Terminator CSM-101 “lỗi thời” có thể chiến thắng...


Download

https://www.fshare.vn/file/B39QNSPYG3TK


Phụ đề

http://phudeviet.org/subtitle/Termin...ines/2498.html
https://subscene.com/subtitles/termi...-machines-2003
https://www.opensubtitles.org/vi/sub...he-machines-vi
Reply With Quote
  #4  
Old 03-01-2019, 00:39
Suachua's Avatar
Suachua Suachua is offline
Senior Member
 
Join Date: 07-2006
Location: Hà Nội
Posts: 3,248
Re: [Hành động - Viễn tưởng][M2TS] Terminator Series Complete



Media info

Complete name : Terminator Salvation 2009 1080p Blu-ray AVC DTS-HD MA 5.1.m2ts
Format : BDAV
Format/Info : Blu-ray Video
File size : 19.7 GiB
Duration : 1 h 57 min
Overall bit rate mode : Variable
Overall bit rate : 23.9 Mb/s
Maximum Overall bit rate : 48.0 Mb/s

Video

Format : AVC
Format/Info : Advanced Video Codec
Format profile : High@L4.1
Format settings : CABAC / 4 Ref Frames
Format settings, CABAC : Yes
Format settings, ReFrames : 4 frames
Format settings, GOP : M=3, N=12
Duration : 1 h 57 min
Bit rate mode : Variable
Maximum bit rate : 30.0 Mb/s
Width : 1 920 pixels
Height : 1 080 pixels
Display aspect ratio : 16:9
Frame rate : 23.976 (24000/1001) FPS
Color space : YUV
Chroma subsampling : 4:2:0
Bit depth : 8 bits
Scan type : Progressive
Color range : Limited
Color primaries : BT.709
Transfer characteristics : BT.709
Matrix coefficients : BT.709

Audio

Format : DTS
Format/Info : Digital Theater Systems
Format profile : MA / Core
Muxing mode : Stream extension
Duration : 1 h 57 min
Bit rate mode : Variable / Constant
Bit rate : Unknown / 1 509 kb/s
Channel(s) : 6 channels
Channel positions : Front: L C R, Side: L R, LFE
Sampling rate : 48.0 kHz
Frame rate : 93.750 FPS (512 SPF)
Bit depth : 24 bits
Compression mode : Lossless / Lossy
Language : English

Text

Format : PGS
Delay relative to video : 1 s 1 ms
Language : English


Nội dung

Bối cảnh phim diễn ra trong thế giới giả tưởng của tương lai năm 2018, khi cuộc chiến của nhân loại với những cỗ máy hủy diệt do hệ thống máy tính thông minh siêu việt tên Skynet làm chủ. Sau khi âm mưu xóa sổ nhân loại trong hàng trăm vụ nổ hạt nhân, Skynet và binh đoàn hủy diệt của nó bắt đầu tiến hành chiến dịch truy quét và tàn sát những người sống sót. John Connor sẽ mang sứ mệnh là người lãnh đạo loài người đứng lên đấu tranh và cứu nhân loại thoát khỏi sự diệt vong...


Download

https://www.fshare.vn/file/GGMJIMFW2AXK


Phụ đề

http://phudeviet.org/subtitle/Termin...tion/2480.html
https://subscene.com/subtitles/termi...n-t4-salvation
https://www.opensubtitles.org/vi/sub...r-salvation-vi
Reply With Quote
  #5  
Old 03-01-2019, 00:40
Suachua's Avatar
Suachua Suachua is offline
Senior Member
 
Join Date: 07-2006
Location: Hà Nội
Posts: 3,248
Re: [Hành động - Viễn tưởng][M2TS] Terminator Series Complete



Media info

Complete name : Terminator Genisys 2015 1080p Blu-ray AVC Atmos 7.1.m2ts
Format : BDAV
Format/Info : Blu-ray Video
File size : 28.2 GiB
Duration : 2 h 5 min
Overall bit rate mode : Variable
Overall bit rate : 32.1 Mb/s
Maximum Overall bit rate : 35.5 Mb/s

Video

Format : AVC
Format/Info : Advanced Video Codec
Format profile : High@L4.1
Format settings : CABAC / 4 Ref Frames
Format settings, CABAC : Yes
Format settings, ReFrames : 4 frames
Duration : 2 h 5 min
Bit rate mode : Variable
Bit rate : 30.1 Mb/s
Maximum bit rate : 32.0 Mb/s
Width : 1 920 pixels
Height : 1 080 pixels
Display aspect ratio : 16:9
Frame rate : 23.976 (24000/1001) FPS
Color space : YUV
Chroma subsampling : 4:2:0
Bit depth : 8 bits
Scan type : Progressive
Bits/(Pixel*Frame) : 0.606
Stream size : 26.5 GiB (94%)

Audio

Format : TrueHD / AC-3
Format profile : TrueHD+Atmos / TrueHD / AC-3
Muxing mode : Stream extension
Duration : 2 h 5 min
Bit rate mode : Variable / Constant
Bit rate : 640 kb/s
Maximum bit rate : 7 878 kb/s
Channel(s) : 8 channels / 6 channels
Channel positions : Front: L C R, Side: L R, Back: L R, LFE / Front: L C R, Side: L R, LFE
Sampling rate : 48.0 kHz
Frame rate : 31.250 FPS (1536 SPF)
Bit depth : 16 bits
Stream size : 575 MiB (2%)
Language : English
Service kind : Complete Main
Number of dynamic objects : 11
Bed channel count : 1 channel
Bed channel configuration : LFE

Text

Format : PGS
Language : Vietnamese


Nội dung

Phần 5 của Kẻ hủy diệt sẽ tập trung vào sự kiện trước khi Sarah Connor biến mất vào khoảng giữa Terminator 2: Judgment Day và Terminator 3: Rise of the Machines. Trong khoảng thời gian này người xem sẽ tiếp xúc với hình hài thật sự của Kẻ hủy diệt T-800 ở dạng con người, và đồng nghĩa với việc sau này tại sao hình mẫu của nhân vật được Skynet lựa cho các lần đưa về quá khứ sau này.


Download

https://www.fshare.vn/file/CQGSC1TQYCKJ


Phụ đề

http://phudeviet.org/subtitle/Termin...isys/5574.html
https://subscene.com/subtitles/terminator-genisys
https://www.opensubtitles.org/vi/sea...idmovie-188579
Reply With Quote
Reply

Thread Tools

Posting Rules
You may not post new threads
You may not post replies
You may not post attachments
You may not edit your posts

BB code is On
Smilies are On
[IMG] code is On
HTML code is Off

Forum Jump

All times are GMT +7. The time now is 13:42.